<?xml version="1.0" standalone="no"?>
<!DOCTYPE svg PUBLIC "-//W3C//DTD SVG 1.1//EN" "https://www.w3.org/Graphics/SVG/1.1/DTD/svg11.dtd" >
<svg xmlns="https://www.w3.org/2000/svg">
<metadata></metadata>
<defs>
<font id="material-desidesigniconicfont" horiz-adv-x="427" >
<font-face units-per-em="512" ascent="448" descent="-64" />
<missing-glyph horiz-adv-x="500" />
<glyph unicode="&#xf101;" horiz-adv-x="510" d="M159 -10l29 28l81 -81l-14 -1q-100 0 -173.5 68t-81.5 167h32q6 -60 40 -108t87 -73zM178 129q14 0 21 7t7 20q0 7 -2 12t-6 8q-4 4 -9.5 5.5t-13.5 1.5h-16v22h16q8 0 13 2t8 5q4 3 6 8t2 10q0 12 -7 19q-6 6 -19 6q-5 0 -10 -2q-4 -1 -8 -4q-3 -3 -5 -8q-2 -4 -2 -9 h-28q0 10 4 18t11 14t17 10q9 3 21 3q11 0 22 -3q10 -3 16 -9q7 -6 11 -15t4 -20q0 -5 -2 -10q-1 -5 -4 -10q-4 -5 -8 -9q-5 -4 -11 -7q7 -3 13 -7q5 -4 8 -9q3 -4 5 -11q2 -5 2 -12q0 -11 -5 -20q-4 -9 -11.5 -15.5t-17.5 -9.5t-22 -3q-11 0 -21 3q-9 3 -17 9t-12 14.5 t-4 20.5h27q0 -6 2 -10.5t6 -7.5q3 -3 8 -5t11 -2zM360.5 255.5q10.5 -10.5 16.5 -25.5q5 -16 5 -34v-8q0 -19 -5 -34q-6 -15 -16 -25q-10 -11 -25 -17q-14 -5 -32 -5h-49v170h50q18 0 31.5 -5.5t24 -16zM352 188v8q0 28 -12 43q-12 14 -35 14h-20v-123h19q12 0 21 4t15 11 q6 8 9 19t3 24zM255 448q100 0 173.5 -68t81.5 -166h-32q-6 59 -40.5 107t-86.5 73l-29 -28l-81 81z" />
<glyph unicode="&#xf102;" horiz-adv-x="405" d="M235 256l170 -107v-42l-67 21l-167 167v78q0 14 9 23t22.5 9t23 -9t9.5 -23v-117zM21 336l27 27l336 -336l-27 -27l-122 122v-79l42 -32v-32l-74 21l-75 -21v32l43 32v117l-171 -53v42l128 80z" />
<glyph unicode="&#xf103;" horiz-adv-x="405" d="M175 256zM405 107l-170 53v-117l42 -32v-32l-74 21l-75 -21v32l43 32v117l-171 -53v42l171 107v117q0 14 9 23t22.5 9t23 -9t9.5 -23v-117l170 -107v-42z" />
<glyph unicode="&#xf104;" d="M213.5 405q88.5 0 151 -62.5t62.5 -150.5t-62.5 -150.5t-151 -62.5t-151 62.5t-62.5 150.5t62.5 150.5t151 62.5zM213 96q40 0 68 28t28 68t-28 68t-68 28t-68 -28t-28 -68t28 -68t68 -28zM213.5 213q8.5 0 15 -6t6.5 -15t-6.5 -15t-15 -6t-15 6t-6.5 15t6.5 15t15 6z " />
<glyph unicode="&#xf105;" horiz-adv-x="384" d="M374 336q10 -11 10 -27v-266q0 -18 -12.5 -30.5t-30.5 -12.5h-298q-18 0 -30.5 12.5t-12.5 30.5v266q0 16 10 27l29 36q10 12 25 12h256q15 0 25 -12zM192 75l117 117h-74v43h-86v-43h-74zM45 341h294l-20 22h-256z" />
<glyph unicode="&#xf106;" horiz-adv-x="384" d="M341 384q18 0 30.5 -12.5t12.5 -30.5v-298q0 -18 -12.5 -30.5t-30.5 -12.5h-298q-18 0 -30.5 12.5t-12.5 30.5v298q0 18 12.5 30.5t30.5 12.5h89q7 19 23.5 31t36.5 12t36.5 -12t23.5 -31h89zM192 384q-9 0 -15 -6.5t-6 -15t6 -15t15 -6.5t15 6.5t6 15t-6 15t-15 6.5z M192 299q-27 0 -45.5 -19t-18.5 -45.5t18.5 -45t45.5 -18.5t45.5 18.5t18.5 45t-18.5 45.5t-45.5 19zM320 43v30q0 19 -23.5 35t-52.5 23.5t-52 7.5t-52 -7.5t-52.5 -23.5t-23.5 -35v-30h256z" />
<glyph unicode="&#xf107;" horiz-adv-x="384" d="M341 384q18 0 30.5 -12.5t12.5 -30.5v-298q0 -18 -12.5 -30.5t-30.5 -12.5h-298q-18 0 -30.5 12.5t-12.5 30.5v298q0 18 12.5 30.5t30.5 12.5h89q7 19 23.5 31t36.5 12t36.5 -12t23.5 -31h89zM213 64v43h-42v-43h42zM213 149v128h-42v-128h42zM192 341q9 0 15 6.5t6 15 t-6 15t-15 6.5t-15 -6.5t-6 -15t6 -15t15 -6.5z" />
<glyph unicode="&#xf108;" horiz-adv-x="384" d="M341 384q18 0 30.5 -12.5t12.5 -30.5v-298q0 -18 -12.5 -30.5t-30.5 -12.5h-298q-18 0 -30.5 12.5t-12.5 30.5v298q0 18 12.5 30.5t30.5 12.5h89q7 19 23.5 31t36.5 12t36.5 -12t23.5 -31h89zM192 384q-9 0 -15 -6.5t-6 -15t6 -15t15 -6.5t15 6.5t6 15t-6 15t-15 6.5z M149 85l171 171l-30 30l-141 -140l-55 55l-30 -30z" />
<glyph unicode="&#xf109;" horiz-adv-x="384" d="M341 405q18 0 30.5 -12.5t12.5 -29.5v-342q0 -17 -12.5 -29.5t-30.5 -12.5h-298q-18 0 -30.5 12.5t-12.5 29.5v342q0 17 12.5 29.5t30.5 12.5h89q7 19 23.5 31t36.5 12t36.5 -12t23.5 -31h89zM192 405q-9 0 -15 -6t-6 -15t6 -15t15 -6t15 6t6 15t-6 15t-15 6zM341 21v342 h-42v-64h-214v64h-42v-342h298z" />
<glyph unicode="&#xf10a;" horiz-adv-x="384" d="M341 384q18 0 30.5 -12.5t12.5 -30.5v-298q0 -18 -12.5 -30.5t-30.5 -12.5h-298q-18 0 -30.5 12.5t-12.5 30.5v298q0 18 12.5 30.5t30.5 12.5h89q7 19 23.5 31t36.5 12t36.5 -12t23.5 -31h89zM192 384q-9 0 -15 -6.5t-6 -15t6 -15t15 -6.5t15 6.5t6 15t-6 15t-15 6.5z M277 128v85h-85v64l-107 -106l107 -107v64h85z" />
<glyph unicode="&#xf10b;" horiz-adv-x="384" d="M341 384q18 0 30.5 -12.5t12.5 -30.5v-298q0 -18 -12.5 -30.5t-30.5 -12.5h-298q-18 0 -30.5 12.5t-12.5 30.5v298q0 18 12.5 30.5t30.5 12.5h89q7 19 23.5 31t36.5 12t36.5 -12t23.5 -31h89zM192 384q-9 0 -15 -6.5t-6 -15t6 -15t15 -6.5t15 6.5t6 15t-6 15t-15 6.5z M192 64l107 107h-64v85h-86v-85h-64z" />
<glyph unicode="&#xf10c;" horiz-adv-x="384" d="M341 363q18 0 30.5 -12.5t12.5 -30.5v-299q0 -17 -12.5 -29.5t-30.5 -12.5h-298q-18 0 -30.5 12.5t-12.5 29.5v299q0 18 12.5 30.5t30.5 12.5h89q7 19 23.5 30.5t36.5 11.5t36.5 -11.5t23.5 -30.5h89zM192 363q-9 0 -15 -6.5t-6 -15t6 -15t15 -6.5t15 6.5t6 15t-6 15 t-15 6.5zM235 64v43h-150v-43h150zM299 149v43h-214v-43h214zM299 235v42h-214v-42h214z" />
<glyph unicode="&#xf10d;" horiz-adv-x="235" d="M203 320h32v-245q0 -49 -34.5 -83.5t-83 -34.5t-83 34.5t-34.5 83.5v266q0 36 25 61t60.5 25t60.5 -25t25 -61v-224q0 -22 -16 -37.5t-38 -15.5t-37.5 15.5t-15.5 37.5v203h32v-203q0 -8 6.5 -14.5t15 -6.5t15 6.5t6.5 14.5v224q0 22 -16 38t-38 16t-37.5 -16t-15.5 -38 v-266q0 -36 25 -61t60.5 -25t60.5 25t25 61v245z" />
<glyph unicode="&#xf10e;" d="M117 75q-48 0 -82.5 34t-34.5 83t34.5 83t82.5 34h224q36 0 61 -25t25 -60t-25 -60t-61 -25h-181q-22 0 -37.5 15.5t-15.5 37.5t15.5 37.5t37.5 15.5h160v-32h-160q-9 0 -15 -6t-6 -15t6 -15t15 -6h181q22 0 38 15.5t16 37.5t-16 37.5t-38 15.5h-224q-35 0 -60 -25 t-25 -60t25 -60t60 -25h203v-32h-203z" />
<glyph unicode="&#xf10f;" horiz-adv-x="277" d="M128 384h149v-64h-85v-235h-1q-4 -36 -31 -60.5t-64 -24.5q-40 0 -68 28t-28 68t28 68t68 28q15 0 32 -6v198z" />
<glyph unicode="&#xf110;" horiz-adv-x="384" d="M341 427q18 0 30.5 -12.5t12.5 -30.5v-276q0 -23 -19 -35l-173 -116l-173 116q-19 12 -19 35v276q0 18 12.5 30.5t30.5 12.5h298zM149 107l192 192l-30 30l-162 -162l-76 76l-30 -30z" />
<glyph unicode="&#xf111;" horiz-adv-x="405" d="M384 64v-21q0 -18 -12.5 -30.5t-30.5 -12.5h-298q-18 0 -30.5 12.5t-12.5 30.5v298q0 18 12.5 30.5t30.5 12.5h298q18 0 30.5 -12.5t12.5 -30.5v-21h-192q-18 0 -30.5 -12.5t-12.5 -30.5v-170q0 -18 12.5 -30.5t30.5 -12.5h192zM192 107v170h213v-170h-213zM277.5 160 q13.5 0 22.5 9.5t9 22.5t-9 22.5t-22.5 9.5t-23 -9.5t-9.5 -22.5t9.5 -22.5t23 -9.5z" />
<glyph unicode="&#xf112;" horiz-adv-x="405" d="M43 235h64v-150h-64v150zM171 235h64v-150h-64v150zM0 -21v64h405v-64h-405zM299 235h64v-150h-64v150zM203 427l202 -107v-43h-405v43z" />
<glyph unicode="&#xf113;" horiz-adv-x="213" d="M185 363q12 0 20 -8.5t8 -20.5v-327q0 -12 -8 -20t-20 -8h-157q-11 0 -19.5 8t-8.5 20v327q0 12 8.5 20.5t19.5 8.5h36v42h85v-42h36zM128 64v43h-43v-43h43zM128 149v107h-43v-107h43z" />
<glyph unicode="&#xf114;" horiz-adv-x="213" d="M185 363q12 0 20 -8.5t8 -20.5v-327q0 -12 -8 -20t-20 -8h-157q-11 0 -19.5 8t-8.5 20v327q0 12 8.5 20.5t19.5 8.5h36v42h85v-42h36zM85 21l86 160h-43v118l-85 -160h42v-118z" />
<glyph unicode="&#xf115;" horiz-adv-x="213" d="M185 363q12 0 20 -8.5t8 -20.5v-327q0 -12 -8 -20t-20 -8h-157q-11 0 -19.5 8t-8.5 20v327q0 12 8.5 20.5t19.5 8.5h36v42h85v-42h36zM127 65v41h-41v-41h41zM156 177q15 15 15 36q0 27 -19 45.5t-45.5 18.5t-45 -18.5t-18.5 -45.5h32q0 14 9 23t22.5 9t23 -9t9.5 -22.5 t-10 -22.5l-20 -20q-19 -21 -19 -43h34q0 16 17 34z" />
<glyph unicode="&#xf116;" horiz-adv-x="213" d="M185 363q12 0 20 -8.5t8 -20.5v-327q0 -12 -8 -20t-20 -8h-157q-11 0 -19.5 8t-8.5 20v327q0 12 8.5 20.5t19.5 8.5h36v42h85v-42h36z" />
<glyph unicode="&#xf117;" horiz-adv-x="512" d="M330.5 331q-17.5 0 -30 12.5t-12.5 30t12.5 30t30 12.5t30 -12.5t12.5 -30t-12.5 -30t-30 -12.5zM106.5 192q44.5 0 75.5 -31t31 -75.5t-31 -75.5t-75.5 -31t-75.5 31t-31 75.5t31 75.5t75.5 31zM106.5 11q30.5 0 52.5 22t22 52.5t-22 52.5t-52.5 22t-52.5 -22t-22 -52.5 t22 -52.5t52.5 -22zM230 224l47 -49v-132h-42v106l-69 60q-12 10 -12 30q0 17 12 30l60 60q10 12 30 12q18 0 34 -12l41 -41q32 -32 76 -32v-43q-64 0 -108 45l-17 17zM405.5 192q44.5 0 75.5 -31t31 -75.5t-31 -75.5t-75.5 -31t-75.5 31t-31 75.5t31 75.5t75.5 31z M405.5 11q30.5 0 52.5 22t22 52.5t-22 52.5t-52.5 22t-52.5 -22t-22 -52.5t22 -52.5t52.5 -22z" />
<glyph unicode="&#xf118;" d="M213.5 405q88.5 0 151 -62.5t62.5 -150.5t-62.5 -150.5t-151 -62.5t-151 62.5t-62.5 150.5t62.5 150.5t151 62.5zM213 21q58 0 105 36l-239 240q-36 -47 -36 -105q0 -71 50 -121t120 -50zM348 87q36 47 36 105q0 71 -50 121t-121 50q-58 0 -104 -36z" />
<glyph unicode="&#xf119;" d="M213.5 405q88.5 0 151 -62.5t62.5 -150.5t-62.5 -150.5t-151 -62.5t-151 62.5t-62.5 150.5t62.5 150.5t151 62.5zM43 192q0 -59 36 -105l239 240q-46 36 -105 36q-70 0 -120 -50t-50 -121zM213 21q71 0 121 50t50 121q0 59 -36 105l-239 -240q46 -36 104 -36z" />
<glyph unicode="&#xf11a;" d="M384 0h43v-43h-43q-44 0 -85 21q-41 -20 -86 -20t-85 20q-42 -21 -85 -21h-43v43h43q45 0 85 28q39 -27 85.5 -27t85.5 27q40 -28 85 -28zM42 43l-41 142q-3 8 1 17q4 8 13 10l28 9v99q0 18 12.5 30.5t29.5 12.5h64v64h128v-64h64q18 0 30.5 -12.5t12.5 -30.5v-99l27 -9 q9 -2 13 -10t1 -17l-40 -142h-1q-48 0 -85 42q-38 -42 -86 -42t-85 42q-37 -42 -85 -42h-1zM85 320v-85l128 42l128 -42v85h-256z" />
<glyph unicode="&#xf11b;" horiz-adv-x="341" d="M299 405q17 0 29.5 -12.5t12.5 -29.5v-342q0 -17 -12.5 -29.5t-29.5 -12.5h-256q-18 0 -30.5 12.5t-12.5 29.5v342q0 17 12.5 29.5t30.5 12.5h256zM43 363v-171l53 32l53 -32v171h-106zM43 43h256l-83 109l-64 -82l-45 55z" />
<glyph unicode="&#xf11c;" horiz-adv-x="341" d="M299 405q17 0 29.5 -12.5t12.5 -29.5v-342q0 -17 -12.5 -29.5t-29.5 -12.5h-256q-18 0 -30.5 12.5t-12.5 29.5v342q0 17 12.5 29.5t30.5 12.5h256zM43 363v-171l53 32l53 -32v171h-106z" />
<glyph unicode="&#xf11d;" horiz-adv-x="299" d="M256 384q18 0 30.5 -12.5t12.5 -30.5v-341l-150 64l-149 -64v341q0 18 12.5 30.5t30.5 12.5h213zM256 64v277h-213v-277l106 47z" />
<glyph unicode="&#xf11e;" horiz-adv-x="299" d="M256 384q18 0 30.5 -12.5t12.5 -30.5v-341l-150 64l-149 -64v341q0 18 12.5 30.5t30.5 12.5h213z" />
<glyph unicode="&#xf11f;" horiz-adv-x="405" d="M106.5 149q26.5 0 45.5 -18.5t19 -45.5q0 -35 -25 -60t-61 -25q-24 0 -47 11.5t-38 31.5q15 0 29 11.5t14 30.5q0 27 18.5 45.5t45 18.5zM399 349q6 -6 6 -15t-6 -15l-191 -191l-59 59l191 191q7 6 15.5 6t15.5 -6z" />
<glyph unicode="&#xf120;" horiz-adv-x="341" d="M341 277v-42h-44q2 -13 2 -22v-21h42v-43h-42v-21q0 -9 -2 -21h44v-43h-60q-17 -29 -46 -46.5t-64 -17.5t-64.5 17.5t-46.5 46.5h-60v43h45q-2 12 -2 21v21h-43v43h43v21q0 9 2 22h-45v42h60q15 26 39 42l-35 35l30 30l47 -46q14 3 29.5 3t30.5 -3l46 46l30 -30l-34 -35 q24 -16 38 -42h60zM213 107v42h-85v-42h85zM213 192v43h-85v-43h85z" />
<glyph unicode="&#xf121;" horiz-adv-x="341" d="M0 107v213q0 27 12.5 44.5t38 26t53 11.5t67 3t67 -3t53 -11.5t38 -26t12.5 -44.5v-213q0 -28 -21 -48v-38q0 -8 -6.5 -14.5t-14.5 -6.5h-22q-8 0 -14.5 6.5t-6.5 14.5v22h-171v-22q0 -8 -6 -14.5t-15 -6.5h-21q-9 0 -15.5 6.5t-6.5 14.5v38q-21 20 -21 48zM74.5 85 q13.5 0 23 9.5t9.5 23t-9.5 22.5t-23 9t-22.5 -9t-9 -22.5t9 -23t22.5 -9.5zM266.5 85q13.5 0 23 9.5t9.5 23t-9.5 22.5t-23 9t-22.5 -9t-9 -22.5t9 -23t22.5 -9.5zM299 213v107h-256v-107h256z" />
<glyph unicode="&#xf122;" horiz-adv-x="384" d="M192 320q-18 0 -30.5 12.5t-12.5 30.5q0 12 7 22l36 63l36 -63q7 -10 7 -22q0 -18 -12.5 -30.5t-30.5 -12.5zM290 107q22 -22 52 -22q23 0 42 13v-98q0 -9 -6.5 -15t-14.5 -6h-342q-8 0 -14.5 6t-6.5 15v98q19 -13 42 -13q30 0 52 22l23 23l23 -23q21 -21 52 -21t52 21 l23 23zM320 256q27 0 45.5 -18.5t18.5 -45.5v-33q0 -17 -12.5 -29.5t-29.5 -12.5t-29 12l-46 46l-46 -46q-11 -11 -29 -11t-30 11l-45 46l-46 -46q-12 -12 -29 -12t-29.5 12.5t-12.5 29.5v33q0 27 18.5 45.5t45.5 18.5h107v43h42v-43h107z" />
<glyph unicode="&#xf123;" horiz-adv-x="384" d="M340 320l44 -128v-171q0 -8 -6.5 -14.5t-14.5 -6.5h-22q-8 0 -14.5 6.5t-6.5 14.5v22h-256v-22q0 -8 -6.5 -14.5t-14.5 -6.5h-22q-8 0 -14.5 6.5t-6.5 14.5v171l44 128q8 21 31 21h53v43h128v-43h53q23 0 31 -21zM74.5 107q13.5 0 23 9t9.5 22.5t-9.5 23t-23 9.5 t-22.5 -9.5t-9 -23t9 -22.5t22.5 -9zM309.5 107q13.5 0 22.5 9t9 22.5t-9 23t-22.5 9.5t-23 -9.5t-9.5 -23t9.5 -22.5t23 -9zM43 213h298l-32 96h-234z" />
<glyph unicode="&#xf124;" horiz-adv-x="384" d="M298.5 341q-13.5 0 -22.5 9.5t-9 22.5q0 10 8 24.5t16 23.5l8 10q32 -36 32 -58q0 -13 -9.5 -22.5t-23 -9.5zM192 341q-13 0 -22.5 9.5t-9.5 22.5q0 10 8 24.5t16 23.5l8 10q32 -36 32 -58q0 -13 -9.5 -22.5t-22.5 -9.5zM85.5 341q-13.5 0 -23 9.5t-9.5 22.5q0 10 8 24.5 t16 23.5l8 10q32 -36 32 -58q0 -13 -9 -22.5t-22.5 -9.5zM340 277l44 -128v-170q0 -9 -6.5 -15.5t-14.5 -6.5h-22q-8 0 -14.5 6.5t-6.5 15.5v21h-256v-21q0 -9 -6.5 -15.5t-14.5 -6.5h-22q-8 0 -14.5 6.5t-6.5 15.5v170l44 128q8 22 31 22h234q23 0 31 -22zM74.5 64 q13.5 0 23 9.5t9.5 22.5t-9.5 22.5t-23 9.5t-22.5 -9.5t-9 -22.5t9 -22.5t22.5 -9.5zM309.5 64q13.5 0 22.5 9.5t9 22.5t-9 22.5t-22.5 9.5t-23 -9.5t-9.5 -22.5t9.5 -22.5t23 -9.5zM43 171h298l-32 96h-234z" />
<glyph unicode="&#xf125;" horiz-adv-x="384" d="M340 320l44 -128v-171q0 -8 -6.5 -14.5t-14.5 -6.5h-22q-8 0 -14.5 6.5t-6.5 14.5v22h-256v-22q0 -8 -6.5 -14.5t-14.5 -6.5h-22q-8 0 -14.5 6.5t-6.5 14.5v171l44 128q8 21 31 21h234q23 0 31 -21zM74.5 107q13.5 0 23 9t9.5 22.5t-9.5 23t-23 9.5t-22.5 -9.5t-9 -23 t9 -22.5t22.5 -9zM309.5 107q13.5 0 22.5 9t9 22.5t-9 23t-22.5 9.5t-23 -9.5t-9.5 -23t9.5 -22.5t23 -9zM43 213h298l-32 96h-234z" />
<glyph unicode="&#xf126;" d="M384 320q18 0 30.5 -12.5t12.5 -30.5v-234q0 -18 -12.5 -30.5t-30.5 -12.5h-341q-18 0 -30.5 12.5t-12.5 30.5v234q0 18 12.5 30.5t30.5 12.5h46q-4 11 -4 21q0 27 19 45.5t45 18.5q34 0 54 -28l10 -15l11 15q19 28 53 28q27 0 45.5 -18.5t18.5 -45.5q0 -10 -4 -21h47z M277.5 363q-8.5 0 -15 -6.5t-6.5 -15t6.5 -15t15 -6.5t15 6.5t6.5 15t-6.5 15t-15 6.5zM149.5 363q-8.5 0 -15 -6.5t-6.5 -15t6.5 -15t15 -6.5t15 6.5t6.5 15t-6.5 15t-15 6.5zM384 43v42h-341v-42h341zM384 149v128h-108l44 -60l-35 -25l-50 69l-22 29l-21 -29l-51 -69 l-34 25l44 60h-108v-128h341z" />
<glyph unicode="&#xf127;" d="M384 405q18 0 30.5 -12.5t12.5 -29.5v-235q0 -18 -12.5 -30.5t-30.5 -12.5h-85v-106l-86 42l-85 -42v106h-85q-18 0 -30.5 12.5t-12.5 30.5v235q0 17 12.5 29.5t30.5 12.5h341zM384 128v43h-341v-43h341zM384 235v128h-341v-128h341z" />
<glyph unicode="&#xf128;" d="M384 320q18 0 30.5 -12.5t12.5 -30.5v-234q0 -18 -12.5 -30.5t-30.5 -12.5h-341q-18 0 -30.5 12.5t-12.5 30.5v234q0 18 12.5 30.5t30.5 12.5h64v43q0 17 12.5 29.5t29.5 12.5h128q18 0 30.5 -12.5t12.5 -29.5v-43h64zM149 363v-43h128v43h-128zM384 43v42h-341v-42h341z M384 149v128h-64v-42h-43v42h-128v-42h-42v42h-64v-128h341z" />
<glyph unicode="&#xf129;" d="M384 363q18 0 30.5 -12.5t12.5 -30.5v-256q0 -18 -12.5 -30.5t-30.5 -12.5h-341q-18 0 -30.5 12.5t-12.5 30.5v256q0 18 12.5 30.5t30.5 12.5h341zM384 64v128h-341v-128h341zM384 277v43h-341v-43h341z" />
<glyph unicode="&#xf12a;" d="M384 309q18 0 30.5 -12.5t12.5 -29.5v-235q0 -18 -12.5 -30.5t-30.5 -12.5h-341q-18 0 -30.5 12.5t-12.5 30.5v235q0 17 12.5 29.5t30.5 12.5h85v43l43 43h85l43 -43v-43h85zM171 352v-43h85v43h-85zM181 64l141 141l-30 30l-111 -111l-44 45l-30 -30z" />
<glyph unicode="&#xf12b;" d="M384 309q18 0 30.5 -12.5t12.5 -29.5v-235q0 -18 -12.5 -30.5t-30.5 -12.5h-341q-18 0 -30.5 12.5t-12.5 30.5v235q0 17 12.5 29.5t30.5 12.5h85v43l43 43h85l43 -43v-43h85zM171 352v-43h85v43h-85zM213 32l107 107h-64v85h-85v-85h-64z" />
<glyph unicode="&#xf12c;" d="M299 320h128v-277q0 -18 -12.5 -30.5t-30.5 -12.5h-341q-18 0 -30.5 12.5t-12.5 30.5v277h128v43q0 17 12.5 29.5t30.5 12.5h85q18 0 30.5 -12.5t12.5 -29.5v-43zM171 363v-43h85v43h-85zM149 64l160 107l-160 85v-192z" />
<glyph unicode="&#xf12d;" d="M384 320q18 0 30.5 -12.5t12.5 -30.5v-234q0 -18 -12.5 -30.5t-30.5 -12.5h-341q-18 0 -30.5 12.5t-12.5 30.5v234q0 18 12.5 30.5t30.5 12.5h85v43q0 17 12.5 29.5t30.5 12.5h85q18 0 30.5 -12.5t12.5 -29.5v-43h85zM256 320v43h-85v-43h85z" />
<glyph unicode="&#xf12e;" horiz-adv-x="469" d="M0 64q27 0 45.5 -18.5t18.5 -45.5h-64v64zM0 149q62 0 105.5 -43.5t43.5 -105.5h-42q0 44 -31.5 75.5t-75.5 31.5v42zM384 299v-214h-120q-21 64 -68 111t-111 68v35h299zM0 235q97 0 166 -69t69 -166h-43q0 80 -56 136t-136 56v43zM427 384q17 0 29.5 -12.5t12.5 -30.5 v-298q0 -18 -12.5 -30.5t-29.5 -12.5h-150v43h150v298h-384v-64h-43v64q0 18 12.5 30.5t30.5 12.5h384z" />
<glyph unicode="&#xf12f;" horiz-adv-x="469" d="M427 384q17 0 29.5 -12.5t12.5 -30.5v-298q0 -18 -12.5 -30.5t-29.5 -12.5h-150v43h150v298h-384v-64h-43v64q0 18 12.5 30.5t30.5 12.5h384zM0 64q27 0 45.5 -18.5t18.5 -45.5h-64v64zM0 149q62 0 105.5 -43.5t43.5 -105.5h-42q0 44 -31.5 75.5t-75.5 31.5v42zM0 235 q97 0 166 -69t69 -166h-43q0 80 -56 136t-136 56v43z" />
<glyph unicode="&#xf130;" d="M235 404q81 -8 136.5 -68.5t55.5 -143.5q0 -45 -19 -87l-56 33q11 27 11 54q0 56 -37 98t-91 50v64zM213 43q72 0 117 56l55 -33q-30 -41 -75 -64t-97 -23q-88 0 -150.5 62.5t-62.5 150.5q0 83 55.5 143.5t136.5 68.5v-64q-55 -8 -91.5 -50t-36.5 -98q0 -62 43.5 -105.5 t105.5 -43.5z" />
<glyph unicode="&#xf131;" horiz-adv-x="384" d="M341 384q18 0 30.5 -12.5t12.5 -30.5v-298q0 -18 -12.5 -30.5t-30.5 -12.5h-298q-18 0 -30.5 12.5t-12.5 30.5v298q0 18 12.5 30.5t30.5 12.5h298zM128 85v150h-43v-150h43zM213 85v214h-42v-214h42zM299 85v86h-43v-86h43z" />
<glyph unicode="&#xf132;" d="M213 299h214v-299h-427v384h213v-85zM85 43v42h-42v-42h42zM85 128v43h-42v-43h42zM85 213v43h-42v-43h42zM85 299v42h-42v-42h42zM171 43v42h-43v-42h43zM171 128v43h-43v-43h43zM171 213v43h-43v-43h43zM171 299v42h-43v-42h43zM384 43v213h-171v-43h43v-42h-43v-43h43 v-43h-43v-42h171zM341 213v-42h-42v42h42zM341 128v-43h-42v43h42z" />
<glyph unicode="&#xf133;" horiz-adv-x="384" d="M256 213h128v-213h-384v299h128v42l64 64l64 -64v-128zM85 43v42h-42v-42h42zM85 128v43h-42v-43h42zM85 213v43h-42v-43h42zM213 43v42h-42v-42h42zM213 128v43h-42v-43h42zM213 213v43h-42v-43h42zM213 299v42h-42v-42h42zM341 43v42h-42v-42h42zM341 128v43h-42v-43 h42z" />
<glyph unicode="&#xf134;" d="M269 277l30 -30l-56 -55l56 -55l-30 -30l-56 55l-55 -55l-30 30l55 55l-55 55l30 30l55 -55zM213.5 405q88.5 0 151 -62.5t62.5 -150.5t-62.5 -150.5t-151 -62.5t-151 62.5t-62.5 150.5t62.5 150.5t151 62.5zM213.5 21q70.5 0 120.5 50t50 121t-50 121t-120.5 50 t-120.5 -50t-50 -121t50 -121t120.5 -50z" />
<glyph unicode="&#xf135;" d="M213.5 405q88.5 0 151 -62.5t62.5 -150.5t-62.5 -150.5t-151 -62.5t-151 62.5t-62.5 150.5t62.5 150.5t151 62.5zM320 115l-77 77l77 77l-30 30l-77 -77l-76 77l-30 -30l76 -77l-76 -77l30 -30l76 77l77 -77z" />
<glyph unicode="&#xf136;" horiz-adv-x="299" d="M299 311l-120 -119l120 -119l-30 -30l-120 119l-119 -119l-30 30l119 119l-119 119l30 30l119 -119l120 119z" />
<glyph unicode="&#xf137;" horiz-adv-x="384" d="M171 171l-171 170v43h384v-43l-171 -170v-128h107v-43h-256v43h107v128zM96 299h192l43 42h-278z" />
<glyph unicode="&#xf138;" horiz-adv-x="477" d="M148 304l-93 -112l93 -112l-33 -27l-115 139l115 139zM132 171v42h43v-42h-43zM345 213v-42h-42v42h42zM217 171v42h43v-42h-43zM362 331l115 -139l-115 -139l-33 27l93 112l-93 112z" />
<glyph unicode="&#xf139;" horiz-adv-x="341" d="M64 341v-42h-43v85q0 18 12.5 30.5t30.5 12.5l213 -1q18 0 30.5 -12t12.5 -30v-85h-43v42h-213zM243 94l-30 30l68 68l-68 68l30 30l98 -98zM128 124l-30 -30l-98 98l98 98l30 -30l-68 -68zM277 43v42h43v-85q0 -18 -12.5 -30.5t-30.5 -12.5h-213q-18 0 -30.5 12.5 t-12.5 30.5v85h43v-42h213z" />
<glyph unicode="&#xf13a;" d="M158 94l-30 -30l-128 128l128 128l30 -30l-98 -98zM269 94l98 98l-98 98l30 30l128 -128l-128 -128z" />
<glyph unicode="&#xf13b;" d="M384 384q18 0 30.5 -12.5t12.5 -30.5v-64q0 -17 -12.5 -29.5t-30.5 -12.5h-43v-64q0 -36 -25 -61t-60 -25h-128q-35 0 -60 25t-25 61v213h341zM384 277v64h-43v-64h43zM0 0v43h384v-43h-384z" />
<glyph unicode="&#xf13c;" d="M43 320v-299h298v-42h-298q-18 0 -30.5 12.5t-12.5 29.5v299h43zM384 405q18 0 30.5 -12.5t12.5 -29.5v-256q0 -18 -12.5 -30.5t-30.5 -12.5h-256q-18 0 -30.5 12.5t-12.5 30.5v256q0 17 12.5 29.5t30.5 12.5h256zM384 192v171h-107v-171l54 32z" />
<glyph unicode="&#xf13d;" horiz-adv-x="469" d="M43 256v-235h341q0 -17 -12.5 -29.5t-30.5 -12.5h-298q-18 0 -30.5 12.5t-12.5 29.5v235h43zM363 341h106v-234q0 -18 -12.5 -30.5t-29.5 -12.5h-299q-18 0 -30.5 12.5t-12.5 30.5v234h107v43q0 18 12.5 30.5t30.5 12.5h85q18 0 30.5 -12.5t12.5 -30.5v-43zM235 384v-43 h85v43h-85zM235 128l117 85l-117 64v-149z" />
<glyph unicode="&#xf13e;" horiz-adv-x="512" d="M43 320v-299h384v-42h-384q-18 0 -30.5 12.5t-12.5 29.5v192v107h43zM469 363q18 0 30.5 -12.5t12.5 -30.5v-213q0 -18 -12.5 -30.5t-30.5 -12.5h-341q-18 0 -30.5 12.5t-12.5 30.5l1 256q0 17 12 29.5t30 12.5h128l43 -42h170zM149 128h299l-75 96l-53 -64l-75 96z" />
<glyph unicode="&#xf13f;" horiz-adv-x="469" d="M319 228l76 -100h-235l59 75l41 -50zM43 341v-341h341v-43h-341q-18 0 -30.5 12.5t-12.5 30.5v341h43zM427 427q17 0 29.5 -12.5t12.5 -30.5v-299q0 -17 -12.5 -29.5t-29.5 -12.5h-299q-18 0 -30.5 12.5t-12.5 29.5v299q0 18 12.5 30.5t30.5 12.5h299zM427 85v299h-299 v-299h299z" />
<glyph unicode="&#xf140;" d="M427 107q0 -18 -12.5 -30.5t-30.5 -12.5h-256q-18 0 -30.5 12.5t-12.5 30.5v256q0 17 12.5 29.5t30.5 12.5h256q18 0 30.5 -12.5t12.5 -29.5v-256zM192 192l-64 -85h256l-85 106l-64 -79zM0 320h43v-299h298v-42h-298q-18 0 -30.5 12.5t-12.5 29.5v299z" />
<glyph unicode="&#xf141;" horiz-adv-x="469" d="M43 341v-341h341v-43h-341q-18 0 -30.5 12.5t-12.5 30.5v341h43zM277 128v171h-42v42h85v-213h-43zM427 427q17 0 29.5 -12.5t12.5 -30.5v-299q0 -17 -12.5 -29.5t-29.5 -12.5h-299q-18 0 -30.5 12.5t-12.5 29.5v299q0 18 12.5 30.5t30.5 12.5h299zM427 85v299h-299v-299 h299z" />
<glyph unicode="&#xf142;" horiz-adv-x="469" d="M43 341v-341h341v-43h-341q-18 0 -30.5 12.5t-12.5 30.5v341h43zM427 427q17 0 29.5 -12.5t12.5 -30.5v-299q0 -17 -12.5 -29.5t-29.5 -12.5h-299q-18 0 -30.5 12.5t-12.5 29.5v299q0 18 12.5 30.5t30.5 12.5h299zM427 85v299h-299v-299h299zM341 171v-43h-128v85 q0 18 12.5 30.5t30.5 12.5h43v43h-86v42h86q17 0 29.5 -12.5t12.5 -29.5v-43q0 -18 -12.5 -30.5t-29.5 -12.5h-43v-42h85z" />
<glyph unicode="&#xf143;" horiz-adv-x="469" d="M427 427q17 0 29.5 -12.5t12.5 -30.5v-299q0 -17 -12.5 -29.5t-29.5 -12.5h-299q-18 0 -30.5 12.5t-12.5 29.5v299q0 18 12.5 30.5t30.5 12.5h299zM427 85v299h-299v-299h299zM43 341v-341h341v-43h-341q-18 0 -30.5 12.5t-12.5 30.5v341h43zM341 171q0 -18 -12.5 -30.5 t-29.5 -12.5h-86v43h86v42h-43v43h43v43h-86v42h86q17 0 29.5 -12.5t12.5 -29.5v-32q0 -14 -9 -23t-23 -9q14 0 23 -9.5t9 -22.5v-32z" />
<glyph unicode="&#xf144;" horiz-adv-x="469" d="M43 341v-341h341v-43h-341q-18 0 -30.5 12.5t-12.5 30.5v341h43zM299 128v85h-86v128h43v-85h43v85h42v-213h-42zM427 427q17 0 29.5 -12.5t12.5 -30.5v-299q0 -17 -12.5 -29.5t-29.5 -12.5h-299q-18 0 -30.5 12.5t-12.5 29.5v299q0 18 12.5 30.5t30.5 12.5h299zM427 85 v299h-299v-299h299z" />
<glyph unicode="&#xf145;" horiz-adv-x="469" d="M427 427q17 0 29.5 -12.5t12.5 -30.5v-299q0 -17 -12.5 -29.5t-29.5 -12.5h-299q-18 0 -30.5 12.5t-12.5 29.5v299q0 18 12.5 30.5t30.5 12.5h299zM427 85v299h-299v-299h299zM43 341v-341h341v-43h-341q-18 0 -30.5 12.5t-12.5 30.5v341h43zM341 171q0 -18 -12.5 -30.5 t-29.5 -12.5h-86v43h86v42h-86v128h128v-42h-85v-43h43q17 0 29.5 -12.5t12.5 -30.5v-42z" />
<glyph unicode="&#xf146;" horiz-adv-x="469" d="M43 341v-341h341v-43h-341q-18 0 -30.5 12.5t-12.5 30.5v341h43zM427 427q17 0 29.5 -12.5t12.5 -30.5v-299q0 -17 -12.5 -29.5t-29.5 -12.5h-299q-18 0 -30.5 12.5t-12.5 29.5v299q0 18 12.5 30.5t30.5 12.5h299zM427 85v299h-299v-299h299zM256 128q-18 0 -30.5 12.5 t-12.5 30.5v128q0 17 12.5 29.5t30.5 12.5h85v-42h-85v-43h43q17 0 29.5 -12.5t12.5 -30.5v-42q0 -18 -12.5 -30.5t-29.5 -12.5h-43zM256 213v-42h43v42h-43z" />
<glyph unicode="&#xf147;" horiz-adv-x="469" d="M43 341v-341h341v-43h-341q-18 0 -30.5 12.5t-12.5 30.5v341h43zM427 427q17 0 29.5 -12.5t12.5 -30.5v-299q0 -17 -12.5 -29.5t-29.5 -12.5h-299q-18 0 -30.5 12.5t-12.5 29.5v299q0 18 12.5 30.5t30.5 12.5h299zM427 85v299h-299v-299h299zM256 128h-43l86 171h-86v42 h128v-42z" />
<glyph unicode="&#xf148;" horiz-adv-x="469" d="M43 341v-341h341v-43h-341q-18 0 -30.5 12.5t-12.5 30.5v341h43zM427 427q17 0 29.5 -12.5t12.5 -30.5v-299q0 -17 -12.5 -29.5t-29.5 -12.5h-299q-18 0 -30.5 12.5t-12.5 29.5v299q0 18 12.5 30.5t30.5 12.5h299zM427 85v299h-299v-299h299zM256 128q-18 0 -30.5 12.5 t-12.5 30.5v32q0 13 9.5 22.5t22.5 9.5q-13 0 -22.5 9t-9.5 23v32q0 17 12.5 29.5t30.5 12.5h43q17 0 29.5 -12.5t12.5 -29.5v-32q0 -14 -9 -23t-23 -9q14 0 23 -9.5t9 -22.5v-32q0 -18 -12.5 -30.5t-29.5 -12.5h-43zM256 299v-43h43v43h-43zM256 213v-42h43v42h-43z" />
<glyph unicode="&#xf149;" horiz-adv-x="469" d="M43 341v-341h341v-43h-341q-18 0 -30.5 12.5t-12.5 30.5v341h43zM277 192q0 -18 -12.5 -30.5t-29.5 -12.5h-64v43h64v21h-22q-17 0 -29.5 12.5t-12.5 30.5v21q0 18 12.5 30.5t29.5 12.5h22q17 0 29.5 -12.5t12.5 -30.5v-85zM213 256h22v21h-22v-21zM427 427 q17 0 29.5 -12.5t12.5 -30.5v-299q0 -17 -12.5 -29.5t-29.5 -12.5h-299q-18 0 -30.5 12.5t-12.5 29.5v299q0 18 12.5 30.5t30.5 12.5h299zM427 256v128h-299v-299h299v128h-43v-42h-43v42h-42v43h42v43h43v-43h43z" />
<glyph unicode="&#xf14a;" horiz-adv-x="469" d="M43 341v-341h341v-43h-341q-18 0 -30.5 12.5t-12.5 30.5v341h43zM427 427q17 0 29.5 -12.5t12.5 -30.5v-299q0 -17 -12.5 -29.5t-29.5 -12.5h-299q-18 0 -30.5 12.5t-12.5 29.5v299q0 18 12.5 30.5t30.5 12.5h299zM427 85v299h-299v-299h299zM299 341q17 0 29.5 -12.5 t12.5 -29.5v-128q0 -18 -12.5 -30.5t-29.5 -12.5h-86v43h86v42h-43q-18 0 -30.5 12.5t-12.5 30.5v43q0 17 12.5 29.5t30.5 12.5h43zM299 256v43h-43v-43h43z" />
<glyph unicode="&#xf14b;" horiz-adv-x="469" d="M43 341v-341h341v-43h-341q-18 0 -30.5 12.5t-12.5 30.5v341h43zM427 427q17 0 29.5 -12.5t12.5 -30.5v-299q0 -17 -12.5 -29.5t-29.5 -12.5h-299q-18 0 -30.5 12.5t-12.5 29.5v299q0 18 12.5 30.5t30.5 12.5h299zM427 85v299h-299v-299h299z" />
<glyph unicode="&#xf14c;" d="M384 405q18 0 30.5 -12.5t12.5 -29.5v-256q0 -18 -12.5 -30.5t-30.5 -12.5h-256q-18 0 -30.5 12.5t-12.5 30.5v256q0 17 12.5 29.5t30.5 12.5h256zM341 299v42h-85v-117q-14 11 -32 11q-22 0 -37.5 -16t-15.5 -38t15.5 -37.5t37.5 -15.5t37.5 15.5t15.5 37.5v118h64z M43 320v-299h298v-42h-298q-18 0 -30.5 12.5t-12.5 29.5v299h43z" />
<glyph unicode="&#xf14d;" d="M384 405q18 0 30.5 -12.5t12.5 -29.5v-256q0 -18 -12.5 -30.5t-30.5 -12.5h-256q-18 0 -30.5 12.5t-12.5 30.5v256q0 17 12.5 29.5t30.5 12.5h256zM203 245v22q0 13 -9.5 22.5t-22.5 9.5h-54v-128h32v42h22q13 0 22.5 9.5t9.5 22.5zM309 203v64q0 13 -9 22.5t-23 9.5h-53 v-128h53q14 0 23 9t9 23zM395 267v32h-64v-128h32v42h32v32h-32v22h32zM149 245v22h22v-22h-22zM43 320v-299h298v-42h-298q-18 0 -30.5 12.5t-12.5 29.5v299h43zM256 203v64h21v-64h-21z" />
<glyph unicode="&#xf14e;" d="M43 320v-299h298v-42h-298q-18 0 -30.5 12.5t-12.5 29.5v299h43zM384 405q18 0 30.5 -12.5t12.5 -29.5v-256q0 -18 -12.5 -30.5t-30.5 -12.5h-256q-18 0 -30.5 12.5t-12.5 30.5v256q0 17 12.5 29.5t30.5 12.5h256zM363 213v43h-86v85h-42v-85h-86v-43h86v-85h42v85h86z " />
<glyph unicode="&#xf14f;" horiz-adv-x="341" d="M303 427q16 0 27 -11.5t11 -27.5v-307q0 -16 -11 -27t-27 -11h-179q-16 0 -27.5 11t-11.5 27v307q0 16 11.5 27.5t27.5 11.5h179zM213.5 384q-17.5 0 -30 -12.5t-12.5 -30t12.5 -30t30 -12.5t30 12.5t12.5 30t-12.5 30t-30 12.5zM213.5 96q35.5 0 60.5 25t25 60.5 t-25 60.5t-60.5 25t-60.5 -25t-25 -60.5t25 -60.5t60.5 -25zM160 181.5q0 53.5 53.5 53.5t53.5 -53.5t-53.5 -53.5t-53.5 53.5zM43 341v-341h213v-43h-213q-18 0 -30.5 12.5t-12.5 30.5v341h43z" />
<glyph unicode="&#xf150;" d="M43 320v-299h298v-42h-298q-18 0 -30.5 12.5t-12.5 29.5v299h43zM384 405q18 0 30.5 -12.5t12.5 -29.5v-256q0 -18 -12.5 -30.5t-30.5 -12.5h-256q-18 0 -30.5 12.5t-12.5 30.5v256q0 17 12.5 29.5t30.5 12.5h256zM363 213v43h-214v-43h214zM277 128v43h-128v-43h128z M363 299v42h-214v-42h214z" />
<glyph unicode="&#xf151;" d="M43 320v-299h298v-42h-298q-18 0 -30.5 12.5t-12.5 29.5v299h43zM384 405q18 0 30.5 -12.5t12.5 -29.5v-256q0 -18 -12.5 -30.5t-30.5 -12.5h-256q-18 0 -30.5 12.5t-12.5 30.5v256q0 17 12.5 29.5t30.5 12.5h256zM213 139l128 96l-128 96v-192z" />
<glyph unicode="&#xf152;" d="M213.5 215q9.5 0 16.5 -6.5t7 -16.5t-7 -16.5t-16.5 -6.5t-16.5 6.5t-7 16.5t7 16.5t16.5 6.5zM213.5 405q88.5 0 151 -62.5t62.5 -150.5t-62.5 -150.5t-151 -62.5t-151 62.5t-62.5 150.5t62.5 150.5t151 62.5zM260 145l81 175l-174 -81l-82 -175z" />
<glyph unicode="&#xf153;" horiz-adv-x="408" d="M114 163l-89 90q-25 25 -25 60t25 60l150 -149zM259 202l-31 -31l146 -147l-30 -30l-146 147l-147 -147l-31 30l209 208q-12 24 -4 56t33 57q31 30 69 35t61.5 -18.5t18.5 -61.5t-36 -69q-25 -25 -56.5 -33t-55.5 4z" />
<glyph unicode="&#xf154;" horiz-adv-x="299" d="M21 43v256h256v-256q0 -18 -12.5 -30.5t-29.5 -12.5h-171q-18 0 -30.5 12.5t-12.5 30.5zM299 363v-43h-299v43h75l21 21h107l21 -21h75z" />
<glyph unicode="&#xf155;" horiz-adv-x="341" d="M170.5 43q17.5 0 30 -12.5t12.5 -30.5t-12.5 -30.5t-30 -12.5t-30 12.5t-12.5 30.5t12.5 30.5t30 12.5zM42.5 427q17.5 0 30 -12.5t12.5 -30.5t-12.5 -30.5t-30 -12.5t-30 12.5t-12.5 30.5t12.5 30.5t30 12.5zM42.5 299q17.5 0 30 -12.5t12.5 -30.5t-12.5 -30.5 t-30 -12.5t-30 12.5t-12.5 30.5t12.5 30.5t30 12.5zM42.5 171q17.5 0 30 -12.5t12.5 -30.5t-12.5 -30.5t-30 -12.5t-30 12.5t-12.5 30.5t12.5 30.5t30 12.5zM298.5 341q-17.5 0 -30 12.5t-12.5 30.5t12.5 30.5t30 12.5t30 -12.5t12.5 -30.5t-12.5 -30.5t-30 -12.5z M170.5 171q17.5 0 30 -12.5t12.5 -30.5t-12.5 -30.5t-30 -12.5t-30 12.5t-12.5 30.5t12.5 30.5t30 12.5zM298.5 171q17.5 0 30 -12.5t12.5 -30.5t-12.5 -30.5t-30 -12.5t-30 12.5t-12.5 30.5t12.5 30.5t30 12.5zM298.5 299q17.5 0 30 -12.5t12.5 -30.5t-12.5 -30.5 t-30 -12.5t-30 12.5t-12.5 30.5t12.5 30.5t30 12.5zM170.5 299q17.5 0 30 -12.5t12.5 -30.5t-12.5 -30.5t-30 -12.5t-30 12.5t-12.5 30.5t12.5 30.5t30 12.5zM170.5 427q17.5 0 30 -12.5t12.5 -30.5t-12.5 -30.5t-30 -12.5t-30 12.5t-12.5 30.5t12.5 30.5t30 12.5z" />
<glyph unicode="&#xf156;" horiz-adv-x="384" d="M363 171q8 0 14.5 -6.5t6.5 -15.5v-128q0 -8 -6.5 -14.5t-14.5 -6.5h-342q-8 0 -14.5 6.5t-6.5 14.5v128q0 9 6.5 15.5t14.5 6.5h342zM85.5 43q17.5 0 30 12.5t12.5 30t-12.5 30t-30 12.5t-30 -12.5t-12.5 -30t12.5 -30t30 -12.5zM363 384q8 0 14.5 -6.5t6.5 -14.5v-128 q0 -9 -6.5 -15.5t-14.5 -6.5h-342q-8 0 -14.5 6.5t-6.5 15.5v128q0 8 6.5 14.5t14.5 6.5h342zM85.5 256q17.5 0 30 12.5t12.5 30t-12.5 30t-30 12.5t-30 -12.5t-12.5 -30t12.5 -30t30 -12.5z" />
<glyph unicode="&#xf157;" horiz-adv-x="384" d="M0 405h384l-43 -389q-2 -16 -14 -26.5t-28 -10.5h-214q-16 0 -28 10.5t-14 26.5zM192 43q27 0 45.5 18.5t18.5 45.5q0 19 -16 47.5t-32 48.5l-16 19q-7 -8 -17.5 -21.5t-28.5 -44t-18 -49.5q0 -27 18.5 -45.5t45.5 -18.5zM327 277l9 86h-288l9 -86h270z" />
<glyph unicode="&#xf158;" horiz-adv-x="384" d="M0 80l236 236l80 -80l-236 -236h-80v80zM378 298l-39 -39l-80 80l39 39q6 6 15 6t15 -6l50 -50q6 -6 6 -15t-6 -15z" />
<glyph unicode="&#xf159;" d="M426 277l1 -213q0 -18 -12.5 -30.5t-30.5 -12.5h-341q-18 0 -30.5 12.5t-12.5 30.5v213q0 24 20 37l193 113l193 -113q20 -13 20 -37zM213 171l177 110l-177 103l-176 -103z" />
<glyph unicode="&#xf15a;" d="M384 363q18 0 30.5 -12.5t12.5 -30.5v-256q0 -18 -12.5 -30.5t-30.5 -12.5h-341q-18 0 -30.5 12.5t-12.5 30.5v256q0 18 12.5 30.5t30.5 12.5h341zM384 277v43l-171 -107l-170 107v-43l170 -106z" />
<glyph unicode="&#xf15b;" horiz-adv-x="469" d="M235 299q-20 0 -39 -8l-46 46q41 15 84 15q79 0 143 -44.5t92 -115.5q-23 -60 -73 -101l-62 62q7 19 7 39q0 44 -31 75.5t-75 31.5zM21 357l27 27l379 -378l-27 -27l-63 62l-9 9q-45 -18 -93 -18q-79 0 -143 44.5t-92 115.5q25 64 80 106l-10 10zM139 239 q-11 -23 -11 -47q0 -44 31.5 -75.5t75.5 -31.5q24 0 47 12l-33 33q-8 -2 -14 -2q-27 0 -45.5 18.5t-18.5 45.5q0 7 1 14zM231 256h4q26 0 45 -19t19 -45l-1 -4z" />
<glyph unicode="&#xf15c;" horiz-adv-x="469" d="M235 352q79 0 142.5 -44.5t91.5 -115.5q-28 -71 -91.5 -115.5t-142.5 -44.5t-143 44.5t-92 115.5q28 71 92 115.5t143 44.5zM235 85q44 0 75 31.5t31 75.5t-31 75.5t-75 31.5t-75.5 -31.5t-31.5 -75.5t31.5 -75.5t75.5 -31.5zM234.5 256q26.5 0 45.5 -18.5t19 -45.5 t-19 -45.5t-45.5 -18.5t-45 18.5t-18.5 45.5t18.5 45.5t45 18.5z" />
<glyph unicode="&#xf15d;" horiz-adv-x="384" d="M378 328q6 -6 6 -15t-6 -15l-67 -67l41 -41l-30 -30l-30 30l-191 -190h-101v101l190 191l-30 30l30 30l41 -41l67 67q6 6 15 6t15 -6zM84 43l172 172l-41 41l-172 -172z" />
<glyph unicode="&#xf15e;" d="M309 384q50 0 84 -34t34 -83q0 -24 -10 -48.5t-22 -43.5t-40.5 -49t-48 -48.5t-62.5 -56.5l-31 -28l-31 27q-42 39 -62 57.5t-48.5 48.5t-40.5 49t-21.5 43.5t-9.5 48.5q0 49 34 83t83 34q58 0 96 -45q38 45 96 45zM215 52q49 44 71.5 65.5t49.5 51.5t37.5 52.5 t10.5 45.5q0 32 -21.5 53t-53.5 21q-24 0 -45.5 -14t-30.5 -36h-40q-8 22 -29.5 36t-46.5 14q-32 0 -53 -21t-21 -53q0 -23 10 -45.5t37.5 -52.5t50 -51.5t70.5 -65.5l2 -2z" />
<glyph unicode="&#xf15f;" d="M213 -7l-31 28q-42 38 -62 56.5t-48 48.5t-40.5 49t-22 43.5t-9.5 48.5q0 49 34 83t83 34q58 0 96 -45q38 45 96 45q50 0 84 -34t34 -83q0 -24 -10 -48.5t-22 -43.5t-40.5 -49t-48 -48.5t-62.5 -57.5z" />
<glyph unicode="&#xf160;" horiz-adv-x="384" d="M149 64v43h86v-43h-86zM0 320h384v-43h-384v43zM64 171v42h256v-42h-256z" />
<glyph unicode="&#xf161;" horiz-adv-x="341" d="M203 434q64 -52 101 -126t37 -159q0 -70 -50 -120t-120.5 -50t-120.5 50t-50 120q0 108 69 190l-1 -8q0 -33 22.5 -56t55.5 -23q32 0 52 23t20 56q0 21 -3.5 46.5t-7.5 40.5zM164 43q43 0 73 30t30 72q0 45 -13 86q-30 -41 -98 -55q-29 -6 -44.5 -23.5t-15.5 -42.5 q0 -28 20 -47.5t48 -19.5z" />
<glyph unicode="&#xf162;" horiz-adv-x="320" d="M201 320h119v-213h-149l-9 42h-119v-149h-43v363h192z" />
<glyph unicode="&#xf163;" horiz-adv-x="469" d="M128 213v-42h-128v42h128zM174 282l-30 -30l-45 46l30 30zM256 427v-128h-43v128h43zM370 298l-45 -46l-30 30l45 46zM341 213h128v-42h-128v42zM234.5 256q26.5 0 45.5 -18.5t19 -45.5t-19 -45.5t-45.5 -18.5t-45 18.5t-18.5 45.5t18.5 45.5t45 18.5zM295 102l30 30 l45 -46l-30 -30zM99 86l45 46l30 -30l-45 -46zM213 -43v128h43v-128h-43z" />
<glyph unicode="&#xf164;" horiz-adv-x="410" d="M0 405h213l-85 -192h85l-149 -256v192h-64v256zM341 405l69 -192h-41l-15 43h-68l-15 -43h-41l69 192h42zM295 285h50l-25 78z" />
<glyph unicode="&#xf165;" horiz-adv-x="363" d="M27 384l336 -336l-27 -27l-89 89l-76 -131v192h-64v79l-107 107zM320 235l-33 -57l-180 181v46h213l-85 -170h85z" />
<glyph unicode="&#xf166;" horiz-adv-x="213" d="M0 405h213l-85 -170h85l-149 -256v192h-64v234z" />
<glyph unicode="&#xf167;" horiz-adv-x="384" d="M256 0v43h43v-43h-43zM341 256v43h43v-43h-43zM0 341q0 18 12.5 30.5t30.5 12.5h85v-43h-85v-298h85v-43h-85q-18 0 -30.5 12.5t-12.5 30.5v298zM341 384q18 0 30.5 -12.5t12.5 -30.5h-43v43zM171 -43v470h42v-470h-42zM341 85v43h43v-43h-43zM256 341v43h43v-43h-43z M341 171v42h43v-42h-43zM341 0v43h43q0 -18 -12.5 -30.5t-30.5 -12.5z" />
<glyph unicode="&#xf168;" horiz-adv-x="384" d="M192 -21q0 79 56 135.5t136 56.5q0 -80 -56 -136t-136 -56zM55 229q0 34 31 48q-31 15 -31 48q0 22 16 38t38 16q17 0 30 -10v4q0 22 15.5 38t37.5 16t37.5 -16t15.5 -38v-4q14 10 30 10q22 0 38 -16t16 -38q0 -33 -31 -48q31 -14 31 -48q0 -22 -16 -37.5t-38 -15.5 q-17 0 -30 9v-4q0 -22 -15.5 -37.5t-37.5 -15.5t-37.5 15.5t-15.5 37.5v4q-14 -9 -30 -9q-22 0 -38 15.5t-16 37.5zM192 331q-22 0 -37.5 -16t-15.5 -38t15.5 -37.5t37.5 -15.5t37.5 15.5t15.5 37.5t-15.5 38t-37.5 16zM0 171q80 0 136 -56.5t56 -135.5q-80 0 -136 56 t-56 136z" />
<glyph unicode="&#xf169;" horiz-adv-x="414" d="M350 183q30 -17 47 -47t17 -63q-29 -17 -63 -17.5t-65 17.5q-9 5 -17 11q2 -10 2 -20q0 -35 -17.5 -64.5t-46.5 -46.5q-29 17 -46.5 46.5t-17.5 64.5q0 10 2 20q-9 -7 -17 -11q-31 -17 -65 -17t-63 17q0 34 17 63.5t47 47.5q8 4 18 8q-10 4 -18 9q-30 17 -47 47t-17 63 q29 17 63 17.5t65 -17.5q8 -4 17 -11q-2 10 -2 20q0 35 17.5 64.5t46.5 46.5q29 -17 46.5 -46.5t17.5 -64.5q0 -10 -2 -20q9 7 17 11q31 18 65 17.5t63 -17.5q0 -33 -17 -63t-47 -47q-8 -5 -18 -9q10 -4 18 -9zM207 107q35 0 60 25t25 60t-25 60t-60 25t-60 -25t-25 -60 t25 -60t60 -25z" />
<glyph unicode="&#xf16a;" d="M169 160l44 118l44 -118h-88zM384 405q18 0 30.5 -12.5t12.5 -29.5v-342q0 -17 -12.5 -29.5t-30.5 -12.5h-341q-18 0 -30.5 12.5t-12.5 29.5v342q0 17 12.5 29.5t30.5 12.5h341zM298 53h44l-109 278h-40l-109 -278h45l24 64h120z" />
<glyph unicode="&#xf16b;" horiz-adv-x="469" d="M235 331l42 -54h-85zM363 235l53 -43l-53 -43v86zM107 235v-86l-54 43zM277 107l-42 -54l-43 54h85zM427 384q17 0 29.5 -12.5t12.5 -30.5v-298q0 -18 -12.5 -30.5t-29.5 -12.5h-384q-18 0 -30.5 12.5t-12.5 30.5v298q0 18 12.5 30.5t30.5 12.5h384zM427 42v300h-384 v-300h384z" />
<glyph unicode="&#xf16c;" horiz-adv-x="299" d="M0 107v42h107v-106h-43v64h-64zM64 277v64h43v-106h-107v42h64zM192 43v106h107v-42h-64v-64h-43zM235 277h64v-42h-107v106h43v-64z" />
<glyph unicode="&#xf16d;" horiz-adv-x="299" d="M43 149v-64h64v-42h-107v106h43zM0 235v106h107v-42h-64v-64h-43zM256 85v64h43v-106h-107v42h64zM192 341h107v-106h-43v64h-64v42z" />
<glyph unicode="&#xf16e;" horiz-adv-x="256" d="M256 363v-64h-149l106 -107l-106 -107h149v-64h-256v43l139 128l-139 128v43h256z" />
<glyph unicode="&#xf16f;" horiz-adv-x="352" d="M336 294q16 -16 16 -38v-203q0 -22 -15.5 -37.5t-37.5 -15.5t-38 15.5t-16 37.5v107h-32v-160h-213v341q0 18 12.5 30.5t30.5 12.5h128q17 0 29.5 -12.5t12.5 -30.5v-149h22q17 0 29.5 -12.5t12.5 -30.5v-96q0 -8 6.5 -14.5t15 -6.5t15 6.5t6.5 14.5v154q-11 -4 -21 -4 q-22 0 -38 15.5t-16 37.5q0 17 9.5 30.5t25.5 19.5l-45 45l22 22l80 -79h-1zM171 235v106h-128v-106h128zM298.5 235q8.5 0 15 6t6.5 15t-6.5 15t-15 6t-15 -6t-6.5 -15t6.5 -15t15 -6z" />
<glyph unicode="&#xf170;" horiz-adv-x="387" d="M37 301l-37 36q5 6 19 20q26 27 58 27q18 0 35.5 -15t17.5 -46q0 -20 -6 -34t-21 -36q-29 -43 -40 -75q-5 -18 -2.5 -29.5t10.5 -11.5q9 0 24 18q16 17 48 58q18 22 46 41t60 19q42 0 62.5 -27.5t23.5 -61.5h52v-53h-52q-6 -69 -36.5 -100t-63.5 -31q-28 0 -48.5 19.5 t-20.5 46.5q0 33 30 69.5t85 45.5v3q-1 8 -2.5 12.5t-5 10.5t-11 9t-18.5 3q-18 0 -39 -20t-48 -53q-16 -19 -23.5 -28t-19.5 -18.5t-23 -12.5q-30 -10 -56 9q-29 22 -29 64q0 14 6 32.5t15 35.5t16.5 30t15.5 24.5t8 12.5q18 28 7 32q-8 3 -37 -26zM236 52q14 0 27.5 18 t17.5 57q-30 -8 -45.5 -27t-15.5 -32q0 -7 5 -11.5t11 -4.5z" />
<glyph unicode="&#xf171;" d="M213.5 405q88.5 0 151 -62.5t62.5 -150.5t-62.5 -150.5t-151 -62.5t-151 62.5t-62.5 150.5t62.5 150.5t151 62.5zM361 277q-32 56 -92 76q19 -35 29 -76h63zM213 362q-27 -39 -40 -85h81q-14 46 -41 85zM48 149h72q-3 25 -3 43t3 43h-72q-5 -23 -5 -43t5 -43zM66 107 q32 -56 92 -76q-19 35 -29 76h-63zM129 277q10 41 29 76q-60 -20 -92 -76h63zM213 22q27 39 41 85h-81q13 -46 40 -85zM263 149q4 25 4 43t-4 43h-100q-3 -25 -3 -43t3 -43h100zM269 31q60 20 92 76h-63q-10 -41 -29 -76zM306 149h72q6 23 6 43t-6 43h-72q3 -25 3 -43 t-3 -43z" />
<glyph unicode="&#xf172;" horiz-adv-x="469" d="M448 363q9 0 15 -6.5t6 -15.5v-85q0 -9 -6 -15t-15 -6h-107q-8 0 -14.5 6t-6.5 15v85q0 9 6.5 15.5t14.5 6.5v10q0 22 16 38t38 16t37.5 -16t15.5 -38v-10zM431 363v10q0 15 -10.5 26t-25.5 11t-26 -11t-11 -26v-10h73zM382 192h44q1 -12 1 -21q0 -89 -62.5 -151.5 t-151 -62.5t-151 62.5t-62.5 151t62.5 151t150.5 62.5q33 0 64 -10v-54q0 -18 -12.5 -30.5t-29.5 -12.5h-43v-42q0 -9 -6.5 -15.5t-14.5 -6.5h-43v-42h128q9 0 15 -6.5t6 -15.5v-64h22q14 0 25 -8t15 -21q45 49 45 115q0 7 -2 21zM192 1v42q-18 0 -30.5 12.5t-12.5 29.5v22 l-102 102q-4 -20 -4 -38q0 -65 42.5 -113.5t106.5 -56.5z" />
<glyph unicode="&#xf173;" d="M213.5 405q88.5 0 151 -62.5t62.5 -150.5t-62.5 -150.5t-151 -62.5t-151 62.5t-62.5 150.5t62.5 150.5t151 62.5zM192 23v41q-18 0 -30.5 12.5t-12.5 30.5v21l-102 102q-4 -20 -4 -38q0 -65 42.5 -113t106.5 -56zM339 77q45 49 45 115q0 53 -29.5 96t-77.5 62v-9 q0 -17 -12.5 -29.5t-29.5 -12.5h-43v-43q0 -9 -6.5 -15t-14.5 -6h-43v-43h128q9 0 15 -6.5t6 -14.5v-64h22q14 0 25 -8.5t15 -21.5z" />
<glyph unicode="&#xf174;" horiz-adv-x="469" d="M85 167l150 -82l149 82v-86l-149 -81l-150 81v86zM235 384l234 -128v-171h-42v148l-192 -105l-235 128z" />
<glyph unicode="&#xf175;" d="M171 21h-107v171h-64l213 192l214 -192h-64v-171h-107v128h-85v-128z" />
<glyph unicode="&#xf176;" horiz-adv-x="384" d="M384 341v-42l-43 -128l43 -128v-43h-384v43l43 128l-43 128v42h271l31 86l50 -19l-24 -67h56zM277 149v43h-64v64h-42v-64h-64v-43h64v-64h42v64h64z" />
<glyph unicode="&#xf177;" horiz-adv-x="384" d="M341 384q18 0 30.5 -12.5t12.5 -30.5v-298q0 -18 -12.5 -30.5t-30.5 -12.5h-298q-18 0 -30.5 12.5t-12.5 30.5v298q0 18 12.5 30.5t30.5 12.5h298zM320 149v86h-85v85h-86v-85h-85v-86h85v-85h86v85h85z" />
<glyph unicode="&#xf178;" horiz-adv-x="469" d="M128 171q-27 0 -45.5 18.5t-18.5 45t18.5 45.5t45.5 19t45.5 -19t18.5 -45.5t-18.5 -45t-45.5 -18.5zM384 299q35 0 60 -25t25 -61v-192h-42v64h-384v-64h-43v320h43v-192h170v150h171z" />
<glyph unicode="&#xf179;" horiz-adv-x="256" d="M0 405h256v-128v0l-85 -85l85 -85v-1v-127h-256v127v1l85 85l-85 85v0v128zM213 96l-85 85l-85 -85h170zM43 288h170v75h-170v-75z" />
<glyph unicode="&#xf17a;" horiz-adv-x="256" d="M0 405h256v-128v0l-85 -85l85 -85v-1v-127h-256v127v1l85 85l-85 85v0v128zM213 96l-85 85l-85 -85v-75h170v75zM128 203l85 85v75h-170v-75z" />
<glyph unicode="&#xf17b;" horiz-adv-x="256" d="M0 405h256v-128v0l-85 -85l85 -85v-1v-127h-256v127v1l85 85l-85 85v0v128z" />
<glyph unicode="&#xf17c;" horiz-adv-x="469" d="M75 213v43h32v-128h-32v53h-43v-53h-32v128h32v-43h43zM128 224v32h96v-32h-32v-96h-32v96h-32zM245 224v32h96v-32h-32v-96h-32v96h-32zM437 256q13 0 22.5 -9.5t9.5 -22.5v-21q0 -13 -9.5 -22.5t-22.5 -9.5h-42v-43h-32v128h74zM437 203v21h-42v-21h42z" />
<glyph unicode="&#xf17d;" horiz-adv-x="469" d="M469 64q0 -18 -12.5 -30.5t-29.5 -12.5h-384q-18 0 -30.5 12.5t-12.5 30.5v256q0 18 12.5 30.5t30.5 12.5h384q17 0 29.5 -12.5t12.5 -30.5v-256zM160 181l-75 -96h299l-96 128l-75 -96z" />
<glyph unicode="&#xf17e;" horiz-adv-x="384" d="M341 384q18 0 30.5 -12.5t12.5 -30.5v-298q0 -18 -12.5 -30.5t-30.5 -12.5h-298q-18 0 -30.5 12.5t-12.5 30.5v298q0 18 12.5 30.5t30.5 12.5h298zM341 43v298h-298v-298h298zM234 186l75 -101h-234l58 76l42 -51z" />
<glyph unicode="&#xf17f;" horiz-adv-x="384" d="M384 43q0 -18 -12.5 -30.5t-30.5 -12.5h-298q-18 0 -30.5 12.5t-12.5 30.5v298q0 18 12.5 30.5t30.5 12.5h298q18 0 30.5 -12.5t12.5 -30.5v-298zM117 160l-74 -96h298l-96 128l-74 -96z" />
<glyph unicode="&#xf180;" horiz-adv-x="384" d="M341 384q18 0 30.5 -12.5t12.5 -30.5v-298q0 -18 -12.5 -30.5t-30.5 -12.5h-299q-17 0 -29.5 12.5t-12.5 30.5v298q0 18 12.5 30.5t29.5 12.5h299zM341 128v213h-299v-213h86q0 -27 18.5 -45.5t45.5 -18.5t45.5 18.5t18.5 45.5h85zM277 235l-85 -86l-85 86h42v64h86v-64 h42z" />
<glyph unicode="&#xf181;" horiz-adv-x="384" d="M377 3l7 -8l-27 -27l-58 58q-46 -38 -107 -38q-71 0 -121 50q-46 46 -49.5 112t37.5 116l-59 59l27 27l59 -59l30 -30l76 -76l134 -134zM192 30v103l-102 102q-26 -34 -26 -77q0 -53 38 -90q37 -38 90 -38zM192 339l-49 -48l-30 30l79 79l121 -121q38 -39 47 -92.5 t-13 -99.5l-155 154v98z" />
<glyph unicode="&#xf182;" horiz-adv-x="341" d="M291 279q50 -50 50 -121t-50 -120.5t-120.5 -49.5t-120.5 49.5t-50 120.5t50 121l121 121zM171 30v309l-91 -90q-37 -38 -37 -91t37 -90q37 -38 91 -38z" />
<glyph unicode="&#xf183;" horiz-adv-x="469" d="M249 235h220v-86h-42v-85h-86v85h-92q-14 -37 -47 -61t-74 -24q-53 0 -90.5 37.5t-37.5 90.5t37.5 90.5t90.5 37.5q41 0 74 -24t47 -61zM128 149q18 0 30.5 12.5t12.5 30.5t-12.5 30.5t-30.5 12.5t-30.5 -12.5t-12.5 -30.5t12.5 -30.5t30.5 -12.5z" />
<glyph unicode="&#xf184;" horiz-adv-x="405" d="M312 323l93 -131l-93 -131q-13 -18 -35 -18h-234q-18 0 -30.5 12.5t-12.5 29.5v214q0 17 12.5 29.5t30.5 12.5h234q22 0 35 -18zM277 85l76 107l-76 107h-234v-214h234z" />
<glyph unicode="&#xf185;" horiz-adv-x="405" d="M312 323l93 -131l-93 -131q-13 -18 -35 -18h-234q-18 0 -30.5 12.5t-12.5 29.5v214q0 17 12.5 29.5t30.5 12.5h234q22 0 35 -18z" />
<glyph unicode="&#xf186;" d="M414 201q13 -13 13 -30.5t-13 -29.5l-149 -150q-13 -12 -30.5 -12t-29.5 12l-192 192q-13 13 -13 30v150q0 17 12.5 29.5t30.5 12.5h149q18 0 30 -12zM74.5 299q13.5 0 23 9t9.5 22.5t-9.5 23t-23 9.5t-22.5 -9.5t-9 -23t9 -22.5t22.5 -9zM326 122q15 16 15 38 t-15.5 37.5t-37.5 15.5t-38 -15l-15 -16l-16 16q-15 15 -38 15q-22 0 -37.5 -15.5t-15.5 -37.5t16 -38l91 -91z" />
<glyph unicode="&#xf187;" d="M414 201q13 -13 13 -30.5t-13 -29.5l-149 -150q-13 -12 -30.5 -12t-29.5 12l-192 192q-13 13 -13 30v150q0 17 12.5 29.5t30.5 12.5h149q18 0 30 -12zM74.5 299q13.5 0 23 9t9.5 22.5t-9.5 23t-23 9.5t-22.5 -9.5t-9 -23t9 -22.5t22.5 -9z" />
<glyph unicode="&#xf188;" horiz-adv-x="446" d="M26 29q-16 7 -22.5 23t-0.5 32l52 125v-192zM442 108q7 -16 0 -32.5t-23 -23.5l-157 -65q-8 -3 -16 -3q-29 0 -39 26l-106 256q-4 8 -3 17q0 28 26 38l157 65q8 3 17 3q28 0 39 -26zM140.5 261q8.5 0 15 6.5t6.5 15t-6.5 15t-15 6.5t-15 -6.5t-6.5 -15t6.5 -15t15 -6.5z M98 27v135l73 -178h-31q-17 0 -29.5 12.5t-12.5 30.5z" />
<glyph unicode="&#xf189;" horiz-adv-x="469" d="M54 52l39 39l30 -30l-39 -39zM213 -31v63h43v-63h-43zM64 224v-43h-64v43h64zM299 313q29 -17 46.5 -46t17.5 -64q0 -53 -37.5 -90.5t-90.5 -37.5t-90.5 37.5t-37.5 90.5q0 35 17 64t47 46v103h128v-103zM405 224h64v-43h-64v43zM346 61l30 29l39 -38l-30 -30z" />
<glyph unicode="&#xf18a;" horiz-adv-x="469" d="M277 320l192 -256h-469l128 171l96 -128l34 25l-61 81z" />
<glyph unicode="&#xf18b;" d="M380 128l-31 31l26 19l30 -30zM370 229l-51 -40l-168 168l62 48l192 -149zM27 427l400 -400l-27 -27l-81 81l-106 -82l-192 149l35 27l157 -123l76 59l-31 30l-45 -34l-157 122l-35 27l69 54l-90 90z" />
<glyph unicode="&#xf18c;" horiz-adv-x="384" d="M192 52l157 123l35 -27l-192 -149l-192 149l35 27zM192 107l-157 122l-35 27l192 149l192 -149l-35 -27z" />
<glyph unicode="&#xf18d;" horiz-adv-x="384" d="M192 202q81 75 192 75v-234q-110 0 -192 -76q-81 76 -192 76v234q111 0 192 -75zM192 277q-27 0 -45.5 19t-18.5 45.5t18.5 45t45.5 18.5t45.5 -18.5t18.5 -45t-18.5 -45.5t-45.5 -19z" />
<glyph unicode="&#xf18e;" d="M41 192q0 -27 19 -46.5t47 -19.5h85v-41h-85q-44 0 -75.5 31.5t-31.5 75.5t31.5 75.5t75.5 31.5h85v-41h-85q-28 0 -47 -19.5t-19 -46.5zM128 171v42h171v-42h-171zM320 299q44 0 75.5 -31.5t31.5 -75.5t-31.5 -75.5t-75.5 -31.5h-85v41h85q27 0 46.5 19.5t19.5 46.5 t-19.5 46.5t-46.5 19.5h-85v41h85z" />
<glyph unicode="&#xf18f;" horiz-adv-x="341" d="M170.5 85q-17.5 0 -30 12.5t-12.5 30.5t12.5 30.5t30 12.5t30 -12.5t12.5 -30.5t-12.5 -30.5t-30 -12.5zM299 277q17 0 29.5 -12.5t12.5 -29.5v-214q0 -17 -12.5 -29.5t-29.5 -12.5h-256q-18 0 -30.5 12.5t-12.5 29.5v214q0 17 12.5 29.5t30.5 12.5h194v43 q0 27 -19.5 46.5t-47 19.5t-46.5 -19.5t-19 -46.5h-41q0 44 31.5 75.5t75.5 31.5t75 -31.5t31 -75.5v-43h22zM299 21v214h-256v-214h256z" />
<glyph unicode="&#xf190;" horiz-adv-x="341" d="M299 277q17 0 29.5 -12.5t12.5 -29.5v-214q0 -17 -12.5 -29.5t-29.5 -12.5h-256q-18 0 -30.5 12.5t-12.5 29.5v214q0 17 12.5 29.5t30.5 12.5h21v43q0 44 31.5 75.5t75.5 31.5t75 -31.5t31 -75.5v-43h22zM170.5 386q-27.5 0 -46.5 -19.5t-19 -46.5h2v-43h130v43 q0 27 -19.5 46.5t-47 19.5zM299 21v214h-256v-214h256zM170.5 85q-17.5 0 -30 12.5t-12.5 30.5t12.5 30.5t30 12.5t30 -12.5t12.5 -30.5t-12.5 -30.5t-30 -12.5z" />
<glyph unicode="&#xf191;" horiz-adv-x="341" d="M299 277q17 0 29.5 -12.5t12.5 -29.5v-214q0 -17 -12.5 -29.5t-29.5 -12.5h-256q-18 0 -30.5 12.5t-12.5 29.5v214q0 17 12.5 29.5t30.5 12.5h21v43q0 44 31.5 75.5t75.5 31.5t75 -31.5t31 -75.5v-43h22zM170.5 85q17.5 0 30 12.5t12.5 30.5t-12.5 30.5t-30 12.5 t-30 -12.5t-12.5 -30.5t12.5 -30.5t30 -12.5zM237 277v43q0 27 -19.5 46.5t-47 19.5t-46.5 -19.5t-19 -46.5v-43h132z" />
<glyph unicode="&#xf192;" horiz-adv-x="512" d="M149 277l-85 -85l85 -85v-64l-149 149l149 149v-64zM277 256q54 -8 96.5 -30.5t69.5 -55.5t43.5 -69.5t25.5 -79.5q-78 109 -235 109v-87l-149 149l149 149v-85z" />
<glyph unicode="&#xf193;" horiz-adv-x="384" d="M149 256q54 -8 96.5 -30.5t69.5 -55.5t43.5 -69.5t25.5 -79.5q-78 109 -235 109v-87l-149 149l149 149v-85z" />
<glyph unicode="&#xf194;" horiz-adv-x="448" d="M0 0v149l320 43l-320 43v149l448 -192z" />
<glyph unicode="&#xf195;" horiz-adv-x="384" d="M341 320q18 0 30.5 -12.5t12.5 -30.5v-256q0 -17 -12.5 -29.5t-30.5 -12.5h-298q-18 0 -30.5 12.5t-12.5 29.5v256q0 18 12.5 30.5t30.5 12.5h42q0 44 31.5 75.5t75.5 31.5t75.5 -31.5t31.5 -75.5h42zM192 384q-27 0 -45.5 -18.5t-18.5 -45.5h128q0 27 -18.5 45.5 t-45.5 18.5zM192 171q44 0 75.5 31t31.5 75h-43q0 -26 -18.5 -45t-45.5 -19t-45.5 19t-18.5 45h-43q0 -44 31.5 -75t75.5 -31z" />
<glyph unicode="&#xf196;" horiz-adv-x="384" d="M373 384q11 0 11 -11v-322q0 -8 -8 -10l-120 -41l-128 45l-114 -44l-3 -1q-11 0 -11 11v322q0 8 8 10l120 41l128 -45l114 44zM256 43v253l-128 45v-253z" />
<glyph unicode="&#xf197;" horiz-adv-x="432" d="M0 48v48h432v-48h-432zM0 168v48h432v-48h-432zM0 336h432v-48h-432v48z" />
<glyph unicode="&#xf198;" d="M192 85v22h-43v42h86v22h-64q-9 0 -15.5 6t-6.5 15v64q0 9 6.5 15t15.5 6h21v22h43v-22h42v-42h-85v-22h64q9 0 15 -6t6 -15v-64q0 -9 -6 -15t-15 -6h-21v-22h-43zM384 363q18 0 30.5 -12.5t12.5 -30.5v-256q0 -18 -12.5 -30.5t-30.5 -12.5h-341q-18 0 -30.5 12.5 t-12.5 30.5v256q0 18 12.5 30.5t30.5 12.5h341zM384 64v256h-341v-256h341z" />
<glyph unicode="&#xf199;" horiz-adv-x="339" d="M180 301q-18 0 -32 -6l-32 31q15 8 32 12v46h64v-47q32 -8 49.5 -30t19.5 -51h-48q-2 45 -53 45zM27 361l312 -312l-27 -27l-48 48q-19 -18 -52 -24v-46h-64v46q-33 7 -55 28t-23 54h46q5 -45 64 -45q38 0 52 20l-75 74q-84 25 -84 84l-73 73z" />
<glyph unicode="&#xf19a;" horiz-adv-x="217" d="M117 215q46 -11 73 -32t27 -61q0 -32 -20.5 -51t-53.5 -25v-46h-64v46q-34 7 -55.5 28t-23.5 54h47q4 -45 64 -45q31 0 44 12t13 26q0 17 -13.5 30t-50.5 22q-100 24 -100 88q0 29 21 49.5t54 27.5v46h64v-47q32 -8 49.5 -30t18.5 -51h-47q-2 45 -53 45q-27 0 -42.5 -11 t-15.5 -29q0 -15 14 -25.5t50 -20.5z" />
<glyph unicode="&#xf19b;" horiz-adv-x="85" d="M42.5 277q-17.5 0 -30 12.5t-12.5 30.5t12.5 30.5t30 12.5t30 -12.5t12.5 -30.5t-12.5 -30.5t-30 -12.5zM42.5 235q17.5 0 30 -12.5t12.5 -30.5t-12.5 -30.5t-30 -12.5t-30 12.5t-12.5 30.5t12.5 30.5t30 12.5zM42.5 107q17.5 0 30 -12.5t12.5 -30.5t-12.5 -30.5 t-30 -12.5t-30 12.5t-12.5 30.5t12.5 30.5t30 12.5z" />
<glyph unicode="&#xf19c;" horiz-adv-x="341" d="M42.5 235q17.5 0 30 -12.5t12.5 -30.5t-12.5 -30.5t-30 -12.5t-30 12.5t-12.5 30.5t12.5 30.5t30 12.5zM298.5 235q17.5 0 30 -12.5t12.5 -30.5t-12.5 -30.5t-30 -12.5t-30 12.5t-12.5 30.5t12.5 30.5t30 12.5zM170.5 235q17.5 0 30 -12.5t12.5 -30.5t-12.5 -30.5 t-30 -12.5t-30 12.5t-12.5 30.5t12.5 30.5t30 12.5z" />
<glyph unicode="&#xf19d;" horiz-adv-x="341" d="M299 384h42v-384h-42v43h-43v-43h-171v43h-42v-43h-43v384h43v-43h42v43h171v-43h43v43zM85 85v43h-42v-43h42zM85 171v42h-42v-42h42zM85 256v43h-42v-43h42zM299 85v43h-43v-43h43zM299 171v42h-43v-42h43zM299 256v43h-43v-43h43z" />
<glyph unicode="&#xf19e;" d="M341 363h86v-299q0 -18 -12.5 -30.5t-30.5 -12.5h-341q-18 0 -30.5 12.5t-12.5 30.5v256q0 18 12.5 30.5t30.5 12.5h21l43 -86h64l-43 86h43l42 -86h64l-42 86h42l43 -86h64z" />
<glyph unicode="&#xf19f;" horiz-adv-x="430" d="M430 252q0 -57 -37.5 -99t-93.5 -49v-83h64v-42h-342v106h-21v86q0 8 6.5 14.5t14.5 6.5h64q9 0 15.5 -6.5t6.5 -14.5v-86h-22v-64h171v84q-53 9 -88.5 50.5t-35.5 96.5q0 62 43.5 106t105.5 44t105.5 -44t43.5 -106zM53.5 213q-13.5 0 -23 9.5t-9.5 23t9.5 22.5t23 9 t22.5 -9t9 -22.5t-9 -23t-22.5 -9.5z" />
<glyph unicode="&#xf1a0;" horiz-adv-x="302" d="M171 104v-83h128v-42h-299v42h128v84q-53 9 -88.5 50.5t-35.5 96.5q0 62 43.5 106t105.5 44t105.5 -44t43.5 -106q0 -57 -37.5 -99t-93.5 -49z" />
<glyph unicode="&#xf1a1;" horiz-adv-x="320" d="M160 405l160 -390l-15 -15l-145 64l-145 -64l-15 15z" />
<glyph unicode="&#xf1a2;" horiz-adv-x="384" d="M341 363q18 0 30.5 -12.5t12.5 -30.5v-256q0 -18 -12.5 -30.5t-30.5 -12.5h-85v43h85v213h-298v-213h85v-43h-85q-18 0 -30.5 12.5t-12.5 30.5v256q0 18 12.5 30.5t30.5 12.5h298zM192 235l85 -86h-64v-128h-42v128h-64z" />
<glyph unicode="&#xf1a3;" horiz-adv-x="384" d="M341 43v149h43v-149q0 -18 -12.5 -30.5t-30.5 -12.5h-298q-18 0 -30.5 12.5t-12.5 30.5v298q0 18 12.5 30.5t30.5 12.5h149v-43h-149v-298h298zM235 384h149v-149h-43v76l-209 -209l-30 30l209 209h-76v43z" />
<glyph unicode="&#xf1a4;" horiz-adv-x="384" d="M192 384q80 0 136 -50t56 -121q0 -44 -31.5 -75t-75.5 -31h-37q-14 0 -23 -9.5t-9 -22.5q0 -12 8 -21q8 -10 8 -22q0 -13 -9.5 -22.5t-22.5 -9.5q-80 0 -136 56t-56 136t56 136t136 56zM74.5 192q13.5 0 23 9.5t9.5 22.5t-9.5 22.5t-23 9.5t-22.5 -9.5t-9 -22.5t9 -22.5 t22.5 -9.5zM138.5 277q13.5 0 23 9.5t9.5 23t-9.5 22.5t-23 9t-22.5 -9t-9 -22.5t9 -23t22.5 -9.5zM245.5 277q13.5 0 22.5 9.5t9 23t-9 22.5t-22.5 9t-23 -9t-9.5 -22.5t9.5 -23t23 -9.5zM309.5 192q13.5 0 22.5 9.5t9 22.5t-9 22.5t-22.5 9.5t-23 -9.5t-9.5 -22.5 t9.5 -22.5t23 -9.5z" />
<glyph unicode="&#xf1a5;" horiz-adv-x="277" d="M149 384q53 0 90.5 -37.5t37.5 -90.5t-37.5 -90.5t-90.5 -37.5h-64v-128h-85v384h149zM154 213q17 0 29.5 12.5t12.5 30.5t-12.5 30.5t-29.5 12.5h-69v-86h69z" />
<glyph unicode="&#xf1a6;" horiz-adv-x="384" d="M341 405q18 0 30.5 -12.5t12.5 -29.5v-299q0 -18 -12.5 -30.5t-30.5 -12.5h-85l-64 -64l-64 64h-85q-18 0 -30.5 12.5t-12.5 30.5v299q0 17 12.5 29.5t30.5 12.5h298zM192 335q-24 0 -41 -17t-17 -41t17 -40.5t41 -16.5t41 16.5t17 40.5t-17 41t-41 17zM320 107v19 q0 20 -23.5 35.5t-52.5 23t-52 7.5t-52 -7.5t-52.5 -23t-23.5 -35.5v-19h256z" />
<glyph unicode="&#xf1a7;" horiz-adv-x="384" d="M341 405q18 0 30.5 -12.5t12.5 -29.5v-299q0 -18 -12.5 -30.5t-30.5 -12.5h-85l-64 -64l-64 64h-85q-18 0 -30.5 12.5t-12.5 30.5v299q0 17 12.5 29.5t30.5 12.5h298zM232 173l88 40l-88 40l-40 88l-40 -88l-88 -40l88 -40l40 -88z" />
<glyph unicode="&#xf1a8;" horiz-adv-x="299" d="M277 277q0 -27 -13 -61t-32 -63t-37.5 -55t-31.5 -40l-14 -15q-5 5 -13.5 15t-30.5 39t-39 56.5t-31 62t-14 61.5q0 53 37.5 90.5t90.5 37.5t90.5 -37.5t37.5 -90.5zM107 277.5q0 -17.5 12.5 -30t30 -12.5t30 12.5t12.5 30t-12.5 30t-30 12.5t-30 -12.5t-12.5 -30zM0 21 h299v-42h-299v42z" />
<glyph unicode="&#xf1a9;" horiz-adv-x="384" d="M341 405q18 0 30.5 -12.5t12.5 -29.5v-299q0 -18 -12.5 -30.5t-30.5 -12.5h-85l-64 -64l-64 64h-85q-18 0 -30.5 12.5t-12.5 30.5v299q0 17 12.5 29.5t30.5 12.5h298zM213 64v43h-42v-43h42zM257 229q20 20 20 48q0 36 -25 61t-60 25t-60 -25t-25 -61h42q0 18 12.5 30.5 t30.5 12.5t30.5 -12.5t12.5 -30.5q0 -17 -13 -30l-26 -27q-25 -25 -25 -60v-11h42q0 22 6 34.5t19 26.5z" />
<glyph unicode="&#xf1aa;" horiz-adv-x="384" d="M213 309q-23 0 -39 -18l-68 68q44 46 107 46q62 0 106 -43.5t44 -105.5q0 -48 -37 -117l-77 78q18 16 18 39q0 22 -16 37.5t-38 15.5zM307 105l77 -78l-27 -27l-72 71q-16 -23 -34 -46.5t-28 -34.5l-10 -11q-6 6 -16 18t-35.5 46.5t-45.5 67t-36 73.5t-16 72q0 16 4 33 l-68 68l27 27l178 -178l3 -3z" />
<glyph unicode="&#xf1ab;" horiz-adv-x="299" d="M149 405q62 0 106 -43.5t44 -105.5q0 -31 -15.5 -71.5t-37.5 -75t-44 -65t-37 -48.5l-16 -17q-6 6 -16 18t-35.5 46.5t-45.5 67t-36 73.5t-16 72q0 62 43.5 105.5t105.5 43.5zM149 203q22 0 38 15.5t16 37.5t-16 37.5t-38 15.5t-37.5 -15.5t-15.5 -37.5t15.5 -37.5 t37.5 -15.5z" />
<glyph unicode="&#xf1ac;" horiz-adv-x="384" d="M192 405q56 0 105.5 -22.5t86.5 -62.5l-192 -341l-192 341q36 40 86 62.5t106 22.5zM85 298.5q0 -17.5 12.5 -30t30 -12.5t30 12.5t12.5 30t-12.5 30t-30 12.5t-30 -12.5t-12.5 -30zM191.5 128q17.5 0 30 12.5t12.5 30t-12.5 30t-30 12.5t-30 -12.5t-12.5 -30t12.5 -30 t30 -12.5z" />
<glyph unicode="&#xf1ad;" horiz-adv-x="428" d="M336 192l86 -85q6 -7 6 -15.5t-6 -14.5l-93 -93q-6 -6 -15 -6t-15 6l-85 85l-85 -85q-6 -6 -15 -6t-15 6l-93 93q-6 6 -6 14.5t6 15.5l85 85l-85 84q-6 7 -6 15.5t6 15.5l93 92q6 6 14.5 6t15.5 -6l85 -85l85 85q6 6 15 6t15 -6l92 -92q7 -7 7 -15.5t-7 -15.5zM214 256 q-9 0 -15 -6.5t-6 -15t6 -15t15 -6.5t15.5 6.5t6.5 15t-6.5 15t-15.5 6.5zM114 214l77 78l-77 77l-78 -78zM171.5 171q8.5 0 15 6t6.5 15t-6.5 15t-15 6t-15 -6t-6.5 -15t6.5 -15t15 -6zM214 128q9 0 15.5 6.5t6.5 15t-6.5 15t-15.5 6.5t-15 -6.5t-6 -15t6 -15t15 -6.5z M257 213q-9 0 -15 -6t-6 -15t6 -15t15 -6t15 6t6 15t-6 15t-15 6zM314 14l77 78l-77 77l-78 -78z" />
<glyph unicode="&#xf1ae;" horiz-adv-x="341" d="M64 -64v43h43v-43h-43zM149 -64v43h43v-43h-43zM192 405v-213h-43v213h43zM268 353q34 -23 53.5 -60t19.5 -80q0 -70 -50 -120t-120.5 -50t-120.5 50t-50 120q0 43 19.5 80t53.5 60l31 -30q-28 -18 -44.5 -47t-16.5 -63q0 -53 37.5 -90.5t90.5 -37.5t90.5 37.5t37.5 90.5 q0 34 -17 63t-45 46zM235 -64v43h42v-43h-42z" />
<glyph unicode="&#xf1af;" horiz-adv-x="384" d="M213 384v-213h-42v213h42zM316 338q68 -58 68 -146q0 -80 -56 -136t-136 -56t-136 56t-56 136q0 88 68 146l30 -30q-55 -45 -55 -116q0 -62 43.5 -105.5t105.5 -43.5t105.5 43.5t43.5 105.5q0 71 -55 115z" />
<glyph unicode="&#xf1b0;" d="M363 277q26 0 45 -18.5t19 -45.5v-128h-86v-85h-256v85h-85v128q0 27 18.5 45.5t45.5 18.5h299zM299 43v106h-171v-106h171zM362.5 192q8.5 0 15 6.5t6.5 15t-6.5 15t-15 6.5t-15 -6.5t-6.5 -15t6.5 -15t15 -6.5zM341 384v-85h-256v85h256z" />
<glyph unicode="&#xf1b1;" horiz-adv-x="448" d="M395 213q22 0 37.5 -15.5t15.5 -37.5t-15.5 -37.5t-37.5 -15.5h-32v-86q0 -17 -12.5 -29.5t-30.5 -12.5h-81v32q0 24 -17 40.5t-41 16.5t-40.5 -16.5t-16.5 -40.5v-32h-81q-18 0 -30.5 12.5t-12.5 29.5v81h32q24 0 41 17t17 41t-17 41t-41 17h-32v81q0 17 12.5 29.5 t30.5 12.5h85v32q0 22 15.5 38t37.5 16t38 -16t16 -38v-32h85q18 0 30.5 -12.5t12.5 -29.5v-86h32z" />
<glyph unicode="&#xf1b2;" horiz-adv-x="299" d="M21 85l43 86h-64v128h128v-128l-43 -86h-64zM192 85l43 86h-64v128h128v-128l-43 -86h-64z" />
<glyph unicode="&#xf1b3;" horiz-adv-x="341" d="M0 117v224q0 27 12.5 45t38 26.5t53 11.5t67 3t67 -3t53 -11.5t38 -26.5t12.5 -45v-224q0 -31 -21.5 -52.5t-52.5 -21.5l32 -32v-11h-256v11l32 32q-31 0 -53 21.5t-22 52.5zM170.5 85q17.5 0 30 12.5t12.5 30.5t-12.5 30.5t-30 12.5t-30 -12.5t-12.5 -30.5t12.5 -30.5 t30 -12.5zM299 235v106h-256v-106h256z" />
<glyph unicode="&#xf1b4;" horiz-adv-x="384" d="M320 85v43h-256v-43h256zM320 171v42h-256v-42h256zM320 256v43h-256v-43h256zM0 -21v426l32 -32l32 32l32 -32l32 32l32 -32l32 32l32 -32l32 32l32 -32l32 32l32 -32l32 32v-426l-32 32l-32 -32l-32 32l-32 -32l-32 32l-32 -32l-32 32l-32 -32l-32 32l-32 -32l-32 32z " />
<glyph unicode="&#xf1b5;" horiz-adv-x="469" d="M384 277l85 -85h-64q0 -71 -50 -121t-120 -50q-49 0 -91 27l31 31q27 -15 60 -15q53 0 90.5 37.5t37.5 90.5h-64zM107 192h64l-86 -85l-85 85h64q0 71 50 121t121 50q49 0 91 -27l-32 -31q-27 15 -59 15q-53 0 -90.5 -37.5t-37.5 -90.5z" />
<glyph unicode="&#xf1b6;" horiz-adv-x="384" d="M0 192q0 59 36 105t92 60v-44q-38 -14 -61.5 -47t-23.5 -74q0 -53 37 -90l48 47v-128h-128l50 51q-50 50 -50 120zM171 85v43h42v-43h-42zM384 363l-50 -51q50 -50 50 -120q0 -59 -36 -105t-92 -60v44q38 14 61.5 47t23.5 74q0 53 -37 90l-48 -47v128h128zM171 171v128 h42v-128h-42z" />
<glyph unicode="&#xf1b7;" horiz-adv-x="366" d="M152 313q-5 -2 -16 -8l-31 32q22 14 47 20v-44zM0 333l27 27l335 -336l-27 -27l-50 50q-22 -14 -48 -20v44q7 3 17 8l-173 172q-14 -28 -14 -59q0 -53 38 -90l47 47v-128h-128l51 51q-51 50 -51 120q0 49 26 90zM366 363l-51 -51q51 -50 51 -120q0 -49 -26 -90l-32 31 q15 28 15 59q0 53 -38 90l-47 -47v128h128z" />
<glyph unicode="&#xf1b8;" horiz-adv-x="341" d="M171 363q70 0 120 -50t50 -121q0 -49 -26 -91l-31 31q15 28 15 60q0 53 -37.5 90.5t-90.5 37.5v-64l-86 85l86 86v-64zM171 64v64l85 -85l-85 -86v64q-71 0 -121 50t-50 121q0 49 26 91l32 -31q-15 -28 -15 -60q0 -53 37.5 -90.5t90.5 -37.5z" />
<glyph unicode="&#xf1b9;" horiz-adv-x="341" d="M171 320q-53 0 -90.5 -37.5t-37.5 -90.5q0 -32 15 -60l-32 -31q-26 42 -26 91q0 71 50 121t121 50v64l85 -86l-85 -85v64zM315 283q26 -42 26 -91q0 -71 -50 -121t-120 -50v-64l-86 86l86 85v-64q53 0 90.5 37.5t37.5 90.5q0 31 -15 60z" />
<glyph unicode="&#xf1ba;" horiz-adv-x="363" d="M299 363h64v-171h-171v-192q0 -9 -6.5 -15t-14.5 -6h-43q-9 0 -15 6t-6 15v235h213v85h-21v-21q0 -9 -6.5 -15.5t-15.5 -6.5h-256q-8 0 -14.5 6.5t-6.5 15.5v85q0 9 6.5 15t14.5 6h256q9 0 15.5 -6t6.5 -15v-21z" />
<glyph unicode="&#xf1bb;" horiz-adv-x="469" d="M427 320q17 0 29.5 -12.5t12.5 -30.5v-170q0 -18 -12.5 -30.5t-29.5 -12.5h-384q-18 0 -30.5 12.5t-12.5 30.5v170q0 18 12.5 30.5t30.5 12.5h384zM427 107v170h-43v-85h-43v85h-42v-85h-43v85h-43v-85h-42v85h-43v-85h-43v85h-42v-170h384z" />
<glyph unicode="&#xf1bc;" d="M163 285l264 -264v-21h-64l-150 149l-50 -50q8 -17 8 -35q0 -35 -25 -60t-60.5 -25t-60.5 25t-25 60t25 60t60 25q19 0 35 -7l51 50l-51 50q-16 -7 -35 -7q-35 0 -60 25t-25 60t25 60t60.5 25t60.5 -25t25 -60q0 -18 -8 -35zM85.5 277q17.5 0 30 12.5t12.5 30.5 t-12.5 30.5t-30 12.5t-30 -12.5t-12.5 -30.5t12.5 -30.5t30 -12.5zM85.5 21q17.5 0 30 12.5t12.5 30.5t-12.5 30.5t-30 12.5t-30 -12.5t-12.5 -30.5t12.5 -30.5t30 -12.5zM213.5 181q10.5 0 10.5 11t-10.5 11t-10.5 -11t10.5 -11zM363 384h64v-21l-150 -150l-42 43z" />
<glyph unicode="&#xf1bd;" horiz-adv-x="484" d="M475 176q9 -10 9 -23t-9 -23l-136 -135q-9 -10 -22.5 -10t-22.5 10l-257 256q-9 9 -9 22.5t9 22.5l136 136q9 9 22.5 9t22.5 -9l53 -52l-31 -30l-44 44l-121 -120l241 -242l121 121l-47 47l30 30zM159 11l29 28l81 -81l-14 -1q-100 0 -173.5 68t-81.5 167h32 q6 -60 40 -108t87 -73zM320 256q-9 0 -15 6.5t-6 14.5v86q0 8 6 14.5t15 6.5v11q0 22 15.5 37.5t37.5 15.5t38 -15.5t16 -37.5v-11q8 0 14.5 -6.5t6.5 -14.5v-86q0 -8 -6.5 -14.5t-14.5 -6.5h-107zM337 395v-11h73v11q0 15 -11 25.5t-26 10.5t-25.5 -10.5t-10.5 -25.5z" />
<glyph unicode="&#xf1be;" horiz-adv-x="510" d="M351 394l-29 -28l-81 81l14 1q100 0 173.5 -68t81.5 -167h-32q-6 60 -40.5 108t-86.5 73zM217 411l257 -257q9 -9 9 -22.5t-9 -22.5l-136 -136q-9 -9 -22.5 -9t-22.5 9l-257 257q-9 9 -9 22.5t9 22.5l136 136q9 9 22.5 9t22.5 -9zM315 -4l136 136l-256 256l-136 -136z M159 -10l29 28l81 -81l-14 -1q-100 0 -173.5 68t-81.5 167h32q6 -60 40 -108t87 -73z" />
<glyph unicode="&#xf1bf;" d="M320 149l107 -106l-32 -32l-107 107v16l-6 6q-39 -33 -90 -33q-38 0 -70 19l31 31q19 -8 39 -8q40 0 68 28.5t28 68t-28 67.5t-68 28t-68 -28t-28 -68h75l-89 -85l-82 85h54q0 57 40.5 98t97.5 41q58 0 98.5 -40.5t40.5 -98.5q0 -51 -34 -90l6 -6h17z" />
<glyph unicode="&#xf1c0;" horiz-adv-x="341" d="M341 30l-81 82q17 27 17 59q0 44 -31 75t-75 31t-75.5 -31t-31.5 -75t31.5 -75.5t75.5 -31.5q31 0 59 18l94 -95q-12 -8 -25 -8h-257q-17 0 -29.5 12.5t-12.5 29.5v342q0 17 12.5 29.5t30.5 12.5h170l128 -128v-247zM107 170.5q0 26.5 18.5 45.5t45 19t45.5 -19t19 -45.5 t-19 -45t-45.5 -18.5t-45 18.5t-18.5 45z" />
<glyph unicode="&#xf1c1;" d="M203 256q22 0 37.5 -15.5t15.5 -37.5t-15.5 -38t-37.5 -16t-38 16t-16 38t16 37.5t38 15.5zM384 363q18 0 30.5 -12.5t12.5 -30.5v-256q0 -18 -12.5 -30.5t-30.5 -12.5h-341q-18 0 -30.5 12.5t-12.5 30.5v256q0 18 12.5 30.5t30.5 12.5h341zM316 60l30 30l-62 62 q15 23 15 51q0 40 -28 68t-68 28t-68 -28t-28 -68t28 -68t67 -28q28 0 51 15z" />
<glyph unicode="&#xf1c2;" horiz-adv-x="373" d="M149 320q-38 0 -67.5 -24.5t-36.5 -60.5h-43q8 54 49.5 91t97.5 37q62 0 106 -44l44 44v-128h-128l54 54q-32 31 -76 31zM270 125l103 -104l-32 -31l-103 103q-40 -29 -89 -29q-62 0 -105 44l-44 -44v128h128l-54 -54q31 -31 75 -31q39 0 68 24t37 61h43q-5 -37 -27 -67z " />
<glyph unicode="&#xf1c3;" horiz-adv-x="373" d="M267 149l106 -106l-32 -32l-106 106v17l-6 6q-39 -33 -90 -33q-58 0 -98.5 40.5t-40.5 98t40.5 98t98 40.5t98 -40.5t40.5 -98.5q0 -51 -33 -90l6 -6h17zM139 149q40 0 68 28t28 68t-28 68t-68 28t-68 -28t-28 -68t28 -68t68 -28z" />
<glyph unicode="&#xf1c4;" d="M43 64v64h341v-128h-64v64h-213v-64h-64v64zM363 235h64v-64h-64v64zM0 235h64v-64h-64v64zM320 171h-213v170q0 18 12.5 30.5t29.5 12.5h128q18 0 30.5 -12.5t12.5 -30.5v-170z" />
<glyph unicode="&#xf1c5;" horiz-adv-x="384" d="M192 235q18 0 30.5 -12.5t12.5 -30.5t-12.5 -30.5t-30.5 -12.5t-30.5 12.5t-12.5 30.5t12.5 30.5t30.5 12.5zM341 384q18 0 30.5 -12.5t12.5 -30.5v-298q0 -18 -12.5 -30.5t-30.5 -12.5h-298q-18 0 -30.5 12.5t-12.5 30.5v298q0 18 12.5 30.5t30.5 12.5h298zM304 192 q0 7 -1 15l32 24q4 5 1 10l-30 52q-3 5 -9 3l-37 -15q-12 9 -25 15l-6 39q-1 6 -7 6h-60q-6 0 -7 -6l-6 -40q-14 -5 -25 -14l-37 15q-6 2 -9 -4l-30 -51q-3 -6 1 -10l32 -24q-1 -8 -1 -15t1 -15l-32 -24q-4 -5 -1 -10l30 -52q3 -5 9 -3l37 15q12 -9 25 -15l6 -39q1 -6 7 -6 h60q6 0 7 6l6 40q14 5 25 14l37 -15q6 -2 9 4l30 51q3 6 -1 10l-32 24q1 8 1 15z" />
<glyph unicode="&#xf1c6;" horiz-adv-x="415" d="M366 171l45 -35q7 -6 3 -14l-43 -74q-4 -8 -13 -4l-53 21q-18 -13 -36 -21l-8 -56q-1 -9 -11 -9h-85q-9 0 -11 9l-8 56q-19 8 -36 21l-53 -21q-9 -3 -13 4l-43 74q-4 8 3 14l45 35q-1 12 -1 21t1 21l-45 35q-7 6 -3 14l43 74q5 8 13 4l53 -21q18 13 36 21l8 56q2 9 11 9 h85q10 0 11 -9l8 -56q19 -8 36 -21l53 21q9 3 13 -4l43 -74q4 -8 -3 -14l-45 -35q2 -12 2 -21t-2 -21zM207.5 117q30.5 0 52.5 22t22 53t-22 53t-52.5 22t-52.5 -22t-22 -53t22 -53t52.5 -22z" />
<glyph unicode="&#xf1c7;" horiz-adv-x="384" d="M192 427l192 -86v-128q0 -89 -55 -162.5t-137 -93.5q-82 20 -137 93.5t-55 162.5v128zM149 85l171 171l-30 30l-141 -140l-55 55l-30 -30z" />
<glyph unicode="&#xf1c8;" horiz-adv-x="384" d="M192 427l192 -86v-128q0 -89 -55 -162.5t-137 -93.5q-82 20 -137 93.5t-55 162.5v128zM192 192v188l-149 -66v-122h149v-191q59 19 100 72t49 119h-149z" />
<glyph unicode="&#xf1c9;" horiz-adv-x="469" d="M346 256h102q9 0 15 -6.5t6 -14.5v-6l-54 -198q-4 -13 -15.5 -22t-26.5 -9h-277q-15 0 -26 9t-15 22l-54 198q-1 2 -1 6q0 8 6.5 14.5t14.5 6.5h103l93 140q6 9 17.5 9t17.5 -9zM171 256h128l-64 94zM234.5 85q17.5 0 30 12.5t12.5 30.5t-12.5 30.5t-30 12.5t-30 -12.5 t-12.5 -30.5t12.5 -30.5t30 -12.5z" />
<glyph unicode="&#xf1ca;" horiz-adv-x="430" d="M213 256v64h-64v43h64v64h43v-64h64v-43h-64v-64h-43zM128 64q18 0 30.5 -12.5t12.5 -30t-12.5 -30t-30.5 -12.5t-30 12.5t-12 30t12 30t30 12.5zM341.5 64q17.5 0 30 -12.5t12.5 -30t-12.5 -30t-30 -12.5t-30 12.5t-12.5 30t12.5 30t30 12.5zM132 133q0 -5 5 -5h247v-43 h-256q-18 0 -30.5 12.5t-12.5 30.5q0 11 6 20l28 53l-76 162h-43v42h70l20 -42l20 -43l48 -101l3 -6h149l59 107l24 43l37 -21l-82 -149q-12 -22 -38 -22h-159l-19 -35v-3z" />
<glyph unicode="&#xf1cb;" d="M128 64q18 0 30.5 -12.5t12.5 -30t-12.5 -30t-30.5 -12.5t-30 12.5t-12 30t12 30t30 12.5zM0 405h70l20 -42h315q9 0 15.5 -6.5t6.5 -15.5q0 -5 -3 -10l-76 -138q-12 -22 -38 -22h-159l-19 -35v-3q0 -5 5 -5h247v-43h-256q-18 0 -30.5 12.5t-12.5 30.5q0 11 6 20l28 53 l-76 162h-43v42zM341.5 64q17.5 0 30 -12.5t12.5 -30t-12.5 -30t-30 -12.5t-30 12.5t-12.5 30t12.5 30t30 12.5z" />
<glyph unicode="&#xf1cc;" horiz-adv-x="384" d="M151 115l55 56h-206v42h206l-55 56l30 30l107 -107l-107 -107zM341 384q18 0 30.5 -12.5t12.5 -30.5v-298q0 -18 -12.5 -30.5t-30.5 -12.5h-298q-18 0 -30.5 12.5t-12.5 30.5v85h43v-85h298v298h-298v-85h-43v85q0 18 12.5 30.5t30.5 12.5h298z" />
<glyph unicode="&#xf1cd;" horiz-adv-x="384" d="M0 320h128v-43h-128v43zM0 64v43h384v-43h-384zM0 213h256v-42h-256v42z" />
<glyph unicode="&#xf1ce;" horiz-adv-x="384" d="M0 64v43h128v-43h-128zM0 320h384v-43h-384v43zM0 171v42h256v-42h-256z" />
<glyph unicode="&#xf1cf;" horiz-adv-x="417" d="M282 364h-147l74 73zM135 20h147l-73 -73zM70 157h81l-41 111zM93 315h35l93 -246h-38l-20 53h-106l-19 -53h-38zM285 103h132v-34h-184v28l128 183h-127v35h179v-27z" />
<glyph unicode="&#xf1d0;" horiz-adv-x="417" d="M282 364h-147l74 73zM135 20h147l-73 -73zM266 157h81l-40 111zM290 315h34l93 -246h-38l-19 53h-106l-20 -53h-38zM52 103h132v-34h-184v28l128 183h-127v35h179v-27z" />
<glyph unicode="&#xf1d1;" horiz-adv-x="438" d="M213 107l-24 64h-121l-23 -64h-45l109 277h40l109 -277h-45zM85 213h88l-44 118zM408 201l30 -30l-202 -203l-109 109l30 30l79 -79z" />
<glyph unicode="&#xf1d2;" d="M0 21v86h427v-86h-427zM43 85v-42h42v42h-42zM0 363h427v-86h-427v86zM85 299v42h-42v-42h42zM0 149v86h427v-86h-427zM43 213v-42h42v42h-42z" />
<glyph unicode="&#xf1d3;" d="M363 299h64v-278h-171v86h-85v-86h-171v278h64v64h299v-64zM192 235v64h-64v-22h43v-21h-43v-64h64v21h-43v22h43zM299 192v107h-22v-43h-21v43h-21v-64h42v-43h22z" />
<glyph unicode="&#xf1d4;" horiz-adv-x="384" d="M363 363v-43h-342v43h342zM384 149h-21v-128h-43v128h-85v-128h-214v128h-21v43l21 107h342l21 -107v-43zM192 64v85h-128v-85h128z" />
<glyph unicode="&#xf1d5;" horiz-adv-x="341" d="M170.5 405q39.5 0 67 -3t53 -11.5t38 -26t12.5 -44.5v-203q0 -31 -21.5 -52.5t-52.5 -21.5l32 -32v-11h-256v11l32 32q-31 0 -53 21.5t-22 52.5v203q0 27 12.5 44.5t38 26t53 11.5t67 3zM74.5 85q13.5 0 23 9.5t9.5 23t-9.5 22.5t-23 9t-22.5 -9t-9 -22.5t9 -23 t22.5 -9.5zM149 213v107h-106v-107h106zM266.5 85q13.5 0 23 9.5t9.5 23t-9.5 22.5t-23 9t-22.5 -9t-9 -22.5t9 -23t22.5 -9.5zM299 213v107h-107v-107h107z" />
<glyph unicode="&#xf1d6;" horiz-adv-x="469" d="M123 345l-30 -30l-39 38l30 30zM64 224v-43h-64v43h64zM256 436v-63h-43v63h43zM415 353l-38 -38l-30 30l38 38zM346 61l30 29l39 -38l-30 -30zM405 224h64v-43h-64v43zM235 331q53 0 90.5 -37.5t37.5 -90.5t-37.5 -90.5t-90.5 -37.5t-90.5 37.5t-37.5 90.5t37.5 90.5 t90.5 37.5zM213 -31v63h43v-63h-43zM54 52l39 39l30 -30l-39 -39z" />
<glyph unicode="&#xf1d7;" horiz-adv-x="469" d="M0 256v43h43v-43h-43zM0 171v42h43v-42h-43zM0 341q0 18 12.5 30.5t30.5 12.5v-43h-43zM171 0v43h42v-43h-42zM0 85v43h43v-43h-43zM43 0q-18 0 -30.5 12.5t-12.5 30.5h43v-43zM427 384q17 0 29.5 -12.5t12.5 -30.5v-85h-213v128h171zM427 85v43h42v-43h-42zM171 341v43 h42v-43h-42zM85 0v43h43v-43h-43zM85 341v43h43v-43h-43zM427 0v43h42q0 -18 -12.5 -30.5t-29.5 -12.5zM427 171v42h42v-42h-42zM256 0v43h43v-43h-43zM341 0v43h43v-43h-43z" />
<glyph unicode="&#xf1d8;" horiz-adv-x="469" d="M427 384q17 0 29.5 -12.5t12.5 -30.5v-298q0 -18 -12.5 -30.5t-29.5 -12.5h-384q-18 0 -30.5 12.5t-12.5 30.5v298q0 18 12.5 30.5t30.5 12.5h384zM427 43v213h-171v85h-213v-298h384z" />
<glyph unicode="&#xf1d9;" horiz-adv-x="512" d="M469 384q18 0 30.5 -12.5t12.5 -30.5v-298q0 -18 -12.5 -30.5t-30.5 -12.5h-320q-21 0 -34 19l-115 173l115 173q13 19 34 19h320zM405 115l-76 77l76 77l-30 30l-76 -77l-77 77l-30 -30l77 -77l-77 -77l30 -30l77 77l76 -77z" />
<glyph unicode="&#xf1da;" horiz-adv-x="512" d="M469 384q18 0 30.5 -12.5t12.5 -30.5v-298q0 -18 -12.5 -30.5t-30.5 -12.5h-318q-23 0 -36 19l-115 173l115 173q13 19 34 19h320zM192 160q13 0 22.5 9.5t9.5 22.5t-9.5 22.5t-22.5 9.5t-22.5 -9.5t-9.5 -22.5t9.5 -22.5t22.5 -9.5zM298.5 160q13.5 0 23 9.5t9.5 22.5 t-9.5 22.5t-23 9.5t-22.5 -9.5t-9 -22.5t9 -22.5t22.5 -9.5zM405.5 160q13.5 0 22.5 9.5t9 22.5t-9 22.5t-22.5 9.5t-23 -9.5t-9.5 -22.5t9.5 -22.5t23 -9.5z" />
<glyph unicode="&#xf1db;" horiz-adv-x="512" d="M469 384q18 0 30.5 -12.5t12.5 -30.5v-298q0 -18 -12.5 -30.5t-30.5 -12.5h-320q-21 0 -34 19l-115 173l115 173q13 19 34 19h320z" />
<glyph unicode="&#xf1dc;" horiz-adv-x="469" d="M299 384q17 0 29.5 -12.5t12.5 -30.5v-213q0 -18 -12 -30l-141 -141l-22 23q-10 9 -10 22l1 7l20 98h-134q-18 0 -30.5 12.5t-12.5 29.5v2v41q0 8 3 16l64 150q11 26 40 26h192zM384 384h85v-256h-85v256z" />
<glyph unicode="&#xf1dd;" horiz-adv-x="512" d="M256 320v-27q0 -6 -2 -11l-49 -113q-8 -20 -29 -20h-144q-13 0 -22.5 9.5t-9.5 22.5v139q0 13 9 23l106 105l17 -17q7 -7 7 -17l-1 -5l-14 -68h111q8 0 14.5 -6t6.5 -15zM480 235q13 0 22.5 -9.5t9.5 -22.5v-139q0 -13 -9 -23l-106 -105l-17 17q-7 7 -7 17l1 5l14 68 h-111q-8 0 -14.5 6t-6.5 15v27q0 6 2 11l49 113q8 20 29 20h144z" />
<glyph unicode="&#xf1de;" horiz-adv-x="469" d="M0 0v256h85v-256h-85zM469 235v-2v-41q0 -8 -3 -16l-64 -150q-11 -26 -39 -26h-192q-18 0 -30.5 12.5t-12.5 30.5v213q0 18 13 30l140 141l23 -23q9 -9 9 -22l-1 -7l-20 -98h135q17 0 29.5 -12.5t12.5 -29.5z" />
<glyph unicode="&#xf1df;" d="M384 192q0 -18 12.5 -30.5t30.5 -12.5v-85q0 -18 -12.5 -30.5t-30.5 -12.5h-341q-18 0 -30.5 12.5t-12.5 30.5v85q18 0 30.5 12.5t12.5 30.5t-12.5 30.5t-30.5 12.5v85q0 18 12.5 30.5t30.5 12.5h341q18 0 30.5 -12.5t12.5 -30.5v-85q-18 0 -30.5 -12.5t-12.5 -30.5z M290 90l-24 87l71 58l-91 5l-33 84l-33 -84l-90 -5l70 -58l-23 -87l76 49z" />
<glyph unicode="&#xf1e0;" horiz-adv-x="469" d="M298.5 363q70.5 0 120.5 -50t50 -121t-50 -121t-120.5 -50t-120.5 50t-50 121t50 121t120.5 50zM299 64q53 0 90.5 37.5t37.5 90.5t-37.5 90.5t-90.5 37.5t-90.5 -37.5t-37.5 -90.5t37.5 -90.5t90.5 -37.5zM43 192q0 -41 23.5 -74t61.5 -47v-44q-56 14 -92 60t-36 105 t36 105t92 60v-44q-38 -14 -61.5 -47t-23.5 -74z" />
<glyph unicode="&#xf1e1;" horiz-adv-x="469" d="M235 192q0 48 34.5 82.5t82.5 34.5t82.5 -34.5t34.5 -82.5h-234zM235 192q0 -48 -35 -82.5t-83 -34.5t-82.5 34.5t-34.5 82.5h235zM235 192q-48 0 -83 34.5t-35 82.5t35 83t83 35v-235zM235 192q48 0 82.5 -34.5t34.5 -82.5t-34.5 -83t-82.5 -35v235z" />
<glyph unicode="&#xf1e2;" horiz-adv-x="341" d="M341 235q0 -30 -18 -52.5t-46 -30.5v-24h64q0 -29 -18 -52t-46 -30v-25q0 -8 -6 -14.5t-15 -6.5h-171q-8 0 -14.5 6.5t-6.5 14.5v25q-28 7 -46 30t-18 52h64v24q-28 8 -46 30.5t-18 52.5h64v24q-28 7 -46 30t-18 52h64v22q0 8 6.5 14.5t14.5 6.5h171q9 0 15 -6.5t6 -14.5 v-22h64q0 -29 -18 -52t-46 -30v-24h64zM170.5 43q17.5 0 30 12.5t12.5 30t-12.5 30t-30 12.5t-30 -12.5t-12.5 -30t12.5 -30t30 -12.5zM170.5 149q17.5 0 30 12.5t12.5 30.5t-12.5 30.5t-30 12.5t-30 -12.5t-12.5 -30.5t12.5 -30.5t30 -12.5zM170.5 256q17.5 0 30 12.5 t12.5 30t-12.5 30t-30 12.5t-30 -12.5t-12.5 -30t12.5 -30t30 -12.5z" />
<glyph unicode="&#xf1e3;" horiz-adv-x="469" d="M253 127l-16 -44l-66 66l-107 -106l-30 30l108 107q-40 44 -63 97h42q20 -39 50 -71q45 50 67 114h-238v43h149v42h43v-42h149v-43h-62q-24 -78 -79 -139l-1 -1zM373 235l96 -256h-42l-24 64h-102l-24 -64h-42l96 256h42zM317 85h70l-35 93z" />
<glyph unicode="&#xf1e4;" d="M213 78l137 219h-273zM213 -2l-213 341h427z" />
<glyph unicode="&#xf1e5;" d="M213 282l-136 -218h273zM213 363l214 -342h-427z" />
<glyph unicode="&#xf1e6;" horiz-adv-x="469" d="M405 277l64 -85v-107h-42q0 -26 -19 -45t-45.5 -19t-45 19t-18.5 45h-128q0 -26 -19 -45t-45.5 -19t-45 19t-18.5 45h-43v235q0 18 12.5 30.5t30.5 12.5h298v-86h64zM106.5 53q13.5 0 23 9.5t9.5 23t-9.5 22.5t-23 9t-22.5 -9t-9 -22.5t9 -23t22.5 -9.5zM395 245h-54v-53 h95zM362.5 53q13.5 0 23 9.5t9.5 23t-9.5 22.5t-23 9t-22.5 -9t-9 -22.5t9 -23t22.5 -9.5z" />
<glyph unicode="&#xf1e7;" d="M420 207q7 -6 7 -15t-7 -15l-192 -192q-6 -6 -15 -6t-15 6l-192 192q-6 6 -6 15t6 15l192 192q6 6 15 6t15 -6zM256 139l75 74l-75 75v-53h-107q-9 0 -15 -6.5t-6 -15.5v-85h43v64h85v-53z" />
<glyph unicode="&#xf1e8;" d="M43 363v-150h-43v150q0 17 12.5 29.5t30.5 12.5h149v-42h-149zM171 171l63 -79l43 57l64 -85h-256zM320 266.5q0 -13.5 -9.5 -22.5t-22.5 -9t-22.5 9t-9.5 22.5t9.5 23t22.5 9.5t22.5 -9.5t9.5 -23zM384 405q18 0 30.5 -12.5t12.5 -29.5v-150h-43v150h-149v42h149z M384 21v150h43v-150q0 -17 -12.5 -29.5t-30.5 -12.5h-149v42h149zM43 171v-150h149v-42h-149q-18 0 -30.5 12.5t-12.5 29.5v150h43z" />
<glyph unicode="&#xf1e9;" horiz-adv-x="341" d="M110 89l121 121q25 -25 25 -60.5t-25 -60.5t-60.5 -25t-60.5 25zM299 405q17 0 29.5 -12.5t12.5 -29.5v-342q0 -17 -12.5 -29.5t-29.5 -12.5h-256q-18 0 -30.5 12.5t-12.5 29.5v342q0 17 12.5 29.5t30.5 12.5h256zM128 363q-9 0 -15 -6.5t-6 -15t6 -15t15 -6.5t15 6.5 t6 15t-6 15t-15 6.5zM64 363q-9 0 -15 -6.5t-6 -15t6 -15t15 -6.5t15 6.5t6 15t-6 15t-15 6.5zM171 21q53 0 90.5 37.5t37.5 90.5t-37.5 90.5t-90.5 37.5t-90.5 -37.5t-37.5 -90.5t37.5 -90.5t90.5 -37.5z" />
<glyph unicode="&#xf1ea;" horiz-adv-x="341" d="M0 363h341v-342h-341v342zM43 277v-213h256v213h-256z" />
<glyph unicode="&#xf1eb;" horiz-adv-x="341" d="M341 21h-341v86h341v-86z" />
<glyph unicode="&#xf1ec;" horiz-adv-x="341" d="M0 277h85v86h256v-256h-85v-86h-256v256zM256 277v-128h43v171h-171v-43h128zM43 192v-128h170v128h-170z" />
<glyph unicode="&#xf1ed;" horiz-adv-x="470" d="M464 43q6 -5 6 -14.5t-8 -15.5l-49 -49q-7 -7 -15.5 -7t-14.5 7l-194 194q-37 -15 -77.5 -6.5t-70.5 38.5q-31 32 -39 75.5t12 82.5l94 -92l64 64l-92 92q38 18 82 10.5t76 -38.5q30 -30 38.5 -70.5t-6.5 -76.5z" />
<glyph unicode="&#xf1ee;" horiz-adv-x="373" d="M267 149l106 -106l-32 -32l-106 106v17l-6 6q-39 -33 -90 -33q-58 0 -98.5 40.5t-40.5 98t40.5 98t98 40.5t98 -40.5t40.5 -98.5q0 -51 -33 -90l6 -6h17zM139 149q40 0 68 28t28 68t-28 68t-68 28t-68 -28t-28 -68t28 -68t68 -28zM192 235h-43v-43h-21v43h-43v21h43v43 h21v-43h43v-21z" />
<glyph unicode="&#xf1ef;" horiz-adv-x="373" d="M267 149l106 -106l-32 -32l-106 106v17l-6 6q-39 -33 -90 -33q-58 0 -98.5 40.5t-40.5 98t40.5 98t98 40.5t98 -40.5t40.5 -98.5q0 -51 -33 -90l6 -6h17zM139 149q40 0 68 28t28 68t-28 68t-68 28t-68 -28t-28 -68t28 -68t68 -28zM85 256h107v-21h-107v21z" />
<glyph unicode="&#xf1f0;" d="M192 128h43v-43h-43v43zM192 299h43v-128h-43v128zM213.5 405q88.5 0 151 -62.5t62.5 -150.5t-62.5 -150.5t-151 -62.5t-151 62.5t-62.5 150.5t62.5 150.5t151 62.5zM213.5 21q70.5 0 120.5 50t50 121t-50 121t-120.5 50t-120.5 -50t-50 -121t50 -121t120.5 -50z" />
<glyph unicode="&#xf1f1;" d="M213.5 405q88.5 0 151 -62.5t62.5 -150.5t-62.5 -150.5t-151 -62.5t-151 62.5t-62.5 150.5t62.5 150.5t151 62.5zM235 85v43h-43v-43h43zM235 171v128h-43v-128h43z" />
<glyph unicode="&#xf1f2;" horiz-adv-x="384" d="M272 384l112 -112v-160l-112 -112h-160l-112 112v160l112 112h160zM192 79q12 0 20 8t8 19.5t-8 19.5t-20 8t-20 -8t-8 -19.5t8 -19.5t20 -8zM213 171v128h-42v-128h42z" />
<glyph unicode="&#xf1f3;" horiz-adv-x="469" d="M469 192l-52 -59l8 -79l-77 -17l-41 -68l-72 31l-73 -31l-40 67l-77 18l7 79l-52 59l52 60l-7 78l77 17l40 68l73 -31l72 31l41 -68l77 -17l-8 -79zM256 85v43h-43v-43h43zM256 171v128h-43v-128h43z" />
<glyph unicode="&#xf1f4;" horiz-adv-x="469" d="M0 0l235 405l234 -405h-469zM256 64v43h-43v-43h43zM256 149v86h-43v-86h43z" />
<glyph unicode="&#xf1f5;" d="M192 64v43h43v-43h-43zM213.5 405q88.5 0 151 -62.5t62.5 -150.5t-62.5 -150.5t-151 -62.5t-151 62.5t-62.5 150.5t62.5 150.5t151 62.5zM213.5 21q70.5 0 120.5 50t50 121t-50 121t-120.5 50t-120.5 -50t-50 -121t50 -121t120.5 -50zM213.5 320q35.5 0 60.5 -25t25 -60 q0 -18 -10 -32.5t-22 -23t-22 -22t-10 -29.5h-43q0 23 10 39.5t22 24t22 18.5t10 25q0 17 -12.5 29.5t-30 12.5t-30 -12.5t-12.5 -29.5h-43q0 35 25 60t60.5 25z" />
<glyph unicode="&#xf1f6;" d="M213.5 405q88.5 0 151 -62.5t62.5 -150.5t-62.5 -150.5t-151 -62.5t-151 62.5t-62.5 150.5t62.5 150.5t151 62.5zM235 43v42h-43v-42h43zM279 208q20 20 20 48q0 35 -25 60t-60.5 25t-60.5 -25t-25 -60h43q0 18 12.5 30.5t30 12.5t30 -12.5t12.5 -30.5t-13 -30l-26 -27 q-25 -25 -25 -60v-11h43q0 22 5.5 34.5t19.5 25.5z" />
<glyph unicode="&#xf1f7;" d="M192 85v128h43v-128h-43zM213.5 405q88.5 0 151 -62.5t62.5 -150.5t-62.5 -150.5t-151 -62.5t-151 62.5t-62.5 150.5t62.5 150.5t151 62.5zM213.5 21q70.5 0 120.5 50t50 121t-50 121t-120.5 50t-120.5 -50t-50 -121t50 -121t120.5 -50zM192 256v43h43v-43h-43z" />
<glyph unicode="&#xf1f8;" d="M213.5 405q88.5 0 151 -62.5t62.5 -150.5t-62.5 -150.5t-151 -62.5t-151 62.5t-62.5 150.5t62.5 150.5t151 62.5zM235 85v128h-43v-128h43zM235 256v43h-43v-43h43z" />
<glyph unicode="&#xf1f9;" horiz-adv-x="447" d="M118 372q-33 -24 -53 -60t-22 -77h-43q2 50 25.5 94t62.5 73zM404 235q-2 41 -22.5 77t-53.5 60l31 30q39 -29 62 -73t26 -94h-43zM362 224v-117l43 -43v-21h-363v21l43 43v117q0 49 30 86.5t76 48.5v14q0 14 9.5 23t23 9t22.5 -9t9 -23v-14q47 -11 77 -48.5t30 -86.5z M223 -21q-17 0 -29.5 12.5t-12.5 29.5h85q0 -8 -3 -16q-9 -21 -31 -25q-4 -1 -9 -1z" />
<glyph unicode="&#xf1fa;" horiz-adv-x="384" d="M150 0h84q0 -18 -12 -30.5t-30 -12.5t-30 12.5t-12 30.5zM339 89l45 -45v-23h-384v23l45 45v124q0 52 32 91.5t81 51.5v15q0 14 10 24t24 10t24 -10t10 -24v-15q49 -12 81 -51.5t32 -91.5v-124zM277 170v43h-64v64h-42v-64h-64v-43h64v-64h42v64h64z" />
<glyph unicode="&#xf1fb;" horiz-adv-x="363" d="M181.5 -21q-17.5 0 -30 12.5t-12.5 29.5h85q0 -17 -12.5 -29.5t-30 -12.5zM320 107l43 -43v-21h-363v21l43 43v117q0 49 30 86.5t76 48.5v14q0 14 9.5 23t23 9t22.5 -9t9 -23v-14q47 -11 77 -48.5t30 -86.5v-117zM277 85v139q0 40 -28 68t-68 28t-68 -28t-28 -68v-139 h192z" />
<glyph unicode="&#xf1fc;" horiz-adv-x="384" d="M181.5 -21q-17.5 0 -30 12.5t-12.5 29.5h85q0 -17 -12.5 -29.5t-30 -12.5zM320 224v-79l-202 202q17 8 31 12v14q0 14 9.5 23t23 9t22.5 -9t9 -23v-14q47 -11 77 -48.5t30 -86.5zM314 43h-314v21l43 43v117q0 38 19 71l-62 62l27 27l357 -357l-27 -27z" />
<glyph unicode="&#xf1fd;" horiz-adv-x="363" d="M181.5 -21q-17.5 0 -30 12.5t-12.5 29.5h85q0 -17 -12.5 -29.5t-30 -12.5zM320 107l43 -43v-21h-363v21l43 43v117q0 49 30 86.5t76 48.5v14q0 14 9.5 23t23 9t22.5 -9t9 -23v-14q47 -11 77 -48.5t30 -86.5v-117zM235 239v38h-107v-38h60l-60 -73v-38h107v38h-60z" />
<glyph unicode="&#xf1fe;" horiz-adv-x="363" d="M181.5 -21q-17.5 0 -30 12.5t-12.5 29.5h85q0 -17 -12.5 -29.5t-30 -12.5zM320 107l43 -43v-21h-363v21l43 43v117q0 49 30 86.5t76 48.5v14q0 14 9.5 23t23 9t22.5 -9t9 -23v-14q47 -11 77 -48.5t30 -86.5v-117z" />
<glyph unicode="&#xf1ff;" horiz-adv-x="469" d="M298.5 192q-35.5 0 -60.5 25t-25 60.5t25 60.5t60.5 25t60.5 -25t25 -60.5t-25 -60.5t-60.5 -25zM107 235h64v-43h-64v-64h-43v64h-64v43h64v64h43v-64zM298.5 149q31.5 0 69.5 -9t69.5 -29.5t31.5 -46.5v-43h-341v43q0 26 31.5 46.5t69.5 29.5t69.5 9z" />
<glyph unicode="&#xf200;" horiz-adv-x="512" d="M448 277l-64 -42l-64 42v22l64 -43l64 43v-22zM469 384q18 0 30.5 -12.5t12.5 -30.5v-298q0 -18 -12.5 -30.5t-30.5 -12.5h-426q-18 0 -30.5 12.5t-12.5 30.5v298q0 18 12.5 30.5t30.5 12.5h426zM170.5 320q-26.5 0 -45 -18.5t-18.5 -45.5t18.5 -45.5t45 -18.5t45.5 18.5 t19 45.5t-19 45.5t-45.5 18.5zM299 64v21q0 20 -24 36t-52.5 23t-52 7t-52 -7t-52 -23t-23.5 -36v-21h256zM469 192v128h-170v-128h170z" />
<glyph unicode="&#xf201;" horiz-adv-x="384" d="M192 187q-20 0 -34 14t-14 34t14 34t34 14t34 -14t14 -34t-14 -34t-34 -14zM288 101v-16h-192v16q0 22 33 35t63 13t63 -13t33 -35zM341 384q18 0 30.5 -12.5t12.5 -30.5v-298q0 -18 -12.5 -30.5t-30.5 -12.5h-298q-18 0 -30.5 12.5t-12.5 30.5v298q0 18 12.5 30.5 t30.5 12.5h298zM341 43v298h-298v-298h298z" />
<glyph unicode="&#xf202;" horiz-adv-x="512" d="M469 384q18 0 30.5 -12.5t12.5 -30.5v-298q0 -18 -12.5 -30.5t-30.5 -12.5h-426q-18 0 -30.5 12.5t-12.5 30.5v298q0 18 12.5 30.5t30.5 12.5h426zM170.5 320q-26.5 0 -45 -18.5t-18.5 -45.5t18.5 -45.5t45 -18.5t45.5 18.5t19 45.5t-19 45.5t-45.5 18.5zM299 64v21 q0 20 -24 36t-52.5 23t-52 7t-52 -7t-52 -23t-23.5 -36v-21h256zM381 149q-8 22 -8 43t8 43h35l32 42l-42 43q-44 -33 -59 -85q-6 -22 -6 -43t6 -43q15 -52 59 -85l42 43l-32 42h-35z" />
<glyph unicode="&#xf203;" horiz-adv-x="384" d="M0 341q0 18 12.5 30.5t30.5 12.5h298q18 0 30.5 -12.5t12.5 -30.5v-298q0 -18 -12.5 -30.5t-30.5 -12.5h-298q-18 0 -30.5 12.5t-12.5 30.5v298zM256 256q0 27 -18.5 45.5t-45.5 18.5t-45.5 -18.5t-18.5 -45.5t18.5 -45.5t45.5 -18.5t45.5 18.5t18.5 45.5zM64 85v-21h256 v21q0 20 -23.5 36t-52.5 23t-52 7t-52 -7t-52.5 -23t-23.5 -36z" />
<glyph unicode="&#xf204;" horiz-adv-x="384" d="M341 384q18 0 30.5 -12.5t12.5 -30.5v-298q0 -18 -12.5 -30.5t-30.5 -12.5h-298q-18 0 -30.5 12.5t-12.5 30.5v298q0 18 12.5 30.5t30.5 12.5h21v43h43v-43h170v43h43v-43h21zM192 320q-27 0 -45.5 -18.5t-18.5 -45.5t18.5 -45.5t45.5 -18.5t45.5 18.5t18.5 45.5 t-18.5 45.5t-45.5 18.5zM320 64v21q0 20 -23.5 36t-52.5 23t-52 7t-52 -7t-52.5 -23t-23.5 -36v-21h256z" />
<glyph unicode="&#xf205;" d="M213.5 405q88.5 0 151 -62.5t62.5 -150.5t-62.5 -150.5t-151 -62.5t-151 62.5t-62.5 150.5t62.5 150.5t151 62.5zM213.5 341q-26.5 0 -45.5 -18.5t-19 -45t19 -45.5t45.5 -19t45 19t18.5 45.5t-18.5 45t-45 18.5zM213.5 38q39.5 0 73 18.5t54.5 50.5q0 20 -23.5 35.5 t-52 23t-52 7.5t-52 -7.5t-52 -23t-24.5 -35.5q21 -32 55 -50.5t73.5 -18.5z" />
<glyph unicode="&#xf206;" horiz-adv-x="341" d="M170.5 322q-18.5 0 -31.5 -13t-13 -31.5t13 -31.5t31.5 -13t31.5 13t13 31.5t-13 31.5t-31.5 13zM171 130q-44 0 -87 -16.5t-43 -28.5v-23h260v23q0 12 -43 28.5t-87 16.5zM170.5 363q35.5 0 60.5 -25t25 -60.5t-25 -60.5t-60.5 -25t-60.5 25t-25 60.5t25 60.5t60.5 25z M170.5 171q31.5 0 69.5 -9t69.5 -29.5t31.5 -47.5v-64h-341v64q0 27 31.5 47.5t69.5 29.5t69.5 9z" />
<glyph unicode="&#xf207;" horiz-adv-x="341" d="M170.5 192q-35.5 0 -60.5 25t-25 60.5t25 60.5t60.5 25t60.5 -25t25 -60.5t-25 -60.5t-60.5 -25zM170.5 149q31.5 0 69.5 -9t69.5 -29.5t31.5 -46.5v-43h-341v43q0 26 31.5 46.5t69.5 29.5t69.5 9z" />
<glyph unicode="&#xf208;" horiz-adv-x="512" d="M171 235v-43h-64v-64h-43v64h-64v43h64v64h43v-64h64zM384 213q-10 0 -19 3q19 28 19 61q0 34 -19 61q9 3 19 3q27 0 45.5 -18.5t18.5 -45t-18.5 -45.5t-45.5 -19zM277.5 213q-26.5 0 -45.5 19t-19 45.5t19 45t45.5 18.5t45 -18.5t18.5 -45t-18.5 -45.5t-45 -19zM419 167 q37 -6 65 -22t28 -38v-43h-64v43q0 34 -29 60zM277 171q40 0 84 -18t44 -46v-43h-256v43q0 28 44 46t84 18z" />
<glyph unicode="&#xf209;" d="M309 192q-22 0 -37.5 15.5t-15.5 37.5t15.5 38t37.5 16t37.5 -16t15.5 -38t-15.5 -37.5t-37.5 -15.5zM149.5 213q-26.5 0 -45.5 19t-19 45.5t19 45t45.5 18.5t45 -18.5t18.5 -45t-18.5 -45.5t-45 -19zM309.5 149q36.5 0 77 -16t40.5 -42v-48h-235v48q0 26 40.5 42t77 16z M149 171q22 0 51 -6q-51 -28 -51 -74v-48h-149v53q0 23 27.5 41t61 26t60.5 8z" />
<glyph unicode="&#xf20a;" d="M384 448v-43h-341v43h341zM43 -64v43h341v-43h-341zM384 363q18 0 30.5 -12.5t12.5 -30.5v-256q0 -18 -12.5 -30.5t-30.5 -12.5h-341q-18 0 -30.5 12.5t-12.5 30.5v256q0 18 12.5 30.5t30.5 12.5h341zM213 304q-20 0 -34 -14t-14 -34t14 -34t34 -14t34 14t14 34t-14 34 t-34 14zM320 85v32q0 24 -36.5 39t-70 15t-70 -15t-36.5 -39v-32h213z" />
<glyph unicode="&#xf20b;" horiz-adv-x="469" d="M427 341h42v-298h-42v298zM341 43v298h43v-298h-43zM277 341q9 0 15.5 -6t6.5 -15v-256q0 -9 -6.5 -15t-15.5 -6h-256q-8 0 -14.5 6t-6.5 15v256q0 9 6.5 15t14.5 6h256zM149 283q-20 0 -34 -14t-14 -34t14 -34t34 -14t34 14t14 34t-14 34t-34 14zM245 85v16q0 22 -33 35 t-63 13t-63 -13t-33 -35v-16h192z" />
<glyph unicode="&#xf20c;" horiz-adv-x="469" d="M331 171q25 0 56 -7.5t56.5 -24t25.5 -38.5v-58h-469v58q0 22 25.5 38.5t56.5 24t57 7.5q50 0 96 -22q46 22 96 22zM245 75v26q0 10 -35 24t-71.5 14t-71.5 -14t-35 -24v-26h213zM437 75v26q0 10 -35 24t-71 14q-32 0 -65 -12q11 -12 11 -26v-26h160zM139 192 q-31 0 -53 22t-22 53t22 52.5t53 21.5t52.5 -21.5t21.5 -52.5t-21.5 -53t-52.5 -22zM138.5 309q-17.5 0 -30 -12.5t-12.5 -30t12.5 -30t30 -12.5t30 12.5t12.5 30t-12.5 30t-30 12.5zM331 192q-31 0 -53 22t-22 53t22 52.5t53 21.5t52.5 -21.5t21.5 -52.5t-21.5 -53 t-52.5 -22zM330.5 309q-17.5 0 -30 -12.5t-12.5 -30t12.5 -30t30 -12.5t30 12.5t12.5 30t-12.5 30t-30 12.5z" />
<glyph unicode="&#xf20d;" horiz-adv-x="469" d="M320 213q-27 0 -45.5 19t-18.5 45.5t18.5 45t45.5 18.5t45.5 -18.5t18.5 -45t-18.5 -45.5t-45.5 -19zM149.5 213q-26.5 0 -45.5 19t-19 45.5t19 45t45.5 18.5t45 -18.5t18.5 -45t-18.5 -45.5t-45 -19zM149.5 171q27.5 0 60.5 -8t61 -26t28 -41v-53h-299v53q0 23 27.5 41 t61 26t61 8zM320 171q28 0 61 -8t60.5 -26t27.5 -41v-53h-128v53q0 43 -42 74q13 1 21 1z" />
<glyph unicode="&#xf20e;" d="M149 197q11 0 19 -7.5t8 -18.5t-8 -19t-19 -8t-18.5 8t-7.5 19t7.5 18.5t18.5 7.5zM277 197q11 0 19 -7.5t8 -18.5t-8 -19t-19 -8t-18.5 8t-7.5 19t7.5 18.5t18.5 7.5zM213.5 405q88.5 0 151 -62.5t62.5 -150.5t-62.5 -150.5t-151 -62.5t-151 62.5t-62.5 150.5 t62.5 150.5t151 62.5zM213.5 21q70.5 0 120.5 50t50 121q0 24 -7 48q-24 -5 -48 -5q-53 0 -99 24t-75 66q-33 -80 -111 -115q-1 -10 -1 -18q0 -71 50 -121t120.5 -50z" />
<glyph unicode="&#xf20f;" horiz-adv-x="192" d="M128 -21h-64v128h-64l54 162q4 14 15.5 22t25.5 8h2q14 0 25 -8t16 -22l54 -162h-64v-128zM96 320q-18 0 -30.5 12.5t-12.5 30t12.5 30t30.5 12.5t30.5 -12.5t12.5 -30t-12.5 -30t-30.5 -12.5z" />
<glyph unicode="&#xf210;" horiz-adv-x="149" d="M32 -21v160h-32v117q0 18 12.5 30.5t30.5 12.5h64q17 0 29.5 -12.5t12.5 -30.5v-117h-32v-160h-85zM74.5 320q-17.5 0 -30 12.5t-12.5 30t12.5 30t30 12.5t30 -12.5t12.5 -30t-12.5 -30t-30 -12.5z" />
<glyph unicode="&#xf211;" horiz-adv-x="363" d="M32 -21v160h-32v117q0 18 12.5 30.5t30.5 12.5h64q17 0 29.5 -12.5t12.5 -30.5v-117h-32v-160h-85zM299 -21h-64v128h-64l54 162q4 14 15.5 22t24.5 8h3q14 0 25 -8t15 -22l55 -162h-64v-128zM74.5 320q-17.5 0 -30 12.5t-12.5 30t12.5 30t30 12.5t30 -12.5t12.5 -30 t-12.5 -30t-30 -12.5zM266.5 320q-17.5 0 -30 12.5t-12.5 30t12.5 30t30 12.5t30 -12.5t12.5 -30t-12.5 -30t-30 -12.5z" />
<glyph unicode="&#xf212;" horiz-adv-x="384" d="M192 405q18 0 30.5 -12.5t12.5 -30t-12.5 -30t-30.5 -12.5t-30.5 12.5t-12.5 30t12.5 30t30.5 12.5zM384 256h-128v-277h-43v128h-42v-128h-43v277h-128v43h384v-43z" />
<glyph unicode="&#xf213;" d="M213.5 405q88.5 0 151 -62.5t62.5 -150.5t-62.5 -150.5t-151 -62.5t-151 62.5t-62.5 150.5t62.5 150.5t151 62.5zM213.5 21q70.5 0 120.5 50t50 121t-50 121t-120.5 50t-120.5 -50t-50 -121t50 -121t120.5 -50zM288 213q-13 0 -22.5 9.5t-9.5 23t9.5 22.5t22.5 9t22.5 -9 t9.5 -22.5t-9.5 -23t-22.5 -9.5zM138.5 213q-13.5 0 -22.5 9.5t-9 23t9 22.5t22.5 9t23 -9t9.5 -22.5t-9.5 -23t-23 -9.5zM213.5 149q36.5 0 66 -20.5t42.5 -53.5h-218q13 33 43 53.5t66.5 20.5z" />
<glyph unicode="&#xf214;" d="M213.5 405q88.5 0 151 -62.5t62.5 -150.5t-62.5 -150.5t-151 -62.5t-151 62.5t-62.5 150.5t62.5 150.5t151 62.5zM213.5 21q70.5 0 120.5 50t50 121t-50 121t-120.5 50t-120.5 -50t-50 -121t50 -121t120.5 -50zM288 213q-13 0 -22.5 9.5t-9.5 23t9.5 22.5t22.5 9t22.5 -9 t9.5 -22.5t-9.5 -23t-22.5 -9.5zM138.5 213q-13.5 0 -22.5 9.5t-9 23t9 22.5t22.5 9t23 -9t9.5 -22.5t-9.5 -23t-23 -9.5zM213.5 75q-36.5 0 -66.5 20.5t-43 53.5h218q-13 -33 -42.5 -53.5t-66 -20.5z" />
<glyph unicode="&#xf215;" horiz-adv-x="343" d="M226.5 331q-17.5 0 -30.5 12.5t-13 30t13 30t30.5 12.5t30 -12.5t12.5 -30t-12.5 -30t-30 -12.5zM149 35l-149 29l9 43l104 -21l34 173l-38 -15v-73h-43v100l111 47q3 0 8.5 1t8.5 1q22 0 36 -21l22 -34q13 -23 37.5 -37t53.5 -14v-43q-71 0 -117 53l-13 -64l45 -42v-160 h-43v128l-44 42z" />
<glyph unicode="&#xf216;" horiz-adv-x="277" d="M160 331q-18 0 -30.5 12.5t-12.5 30t12.5 30t30.5 12.5t30.5 -12.5t12.5 -30t-12.5 -30t-30.5 -12.5zM81 258l-60 -301h45l39 171l44 -43v-128h43v160l-45 43l13 64q46 -53 117 -53v42q-29 0 -53.5 14.5t-37.5 37.5l-22 34q-14 21 -36 21q-3 0 -8.5 -1t-8.5 -1l-111 -47 v-100h43v72l38 15v0z" />
<glyph unicode="&#xf217;" horiz-adv-x="469" d="M171 107q-27 0 -45.5 18.5t-18.5 45.5q0 24 16.5 42.5t40.5 20.5h3q9 20 27.5 31.5t40.5 11.5q28 0 48.5 -18t24.5 -46h1q22 0 38 -15.5t16 -37.5t-16 -37.5t-38 -15.5h-138zM427 384q17 0 29.5 -12.5t12.5 -30.5v-298q0 -18 -12.5 -30.5t-29.5 -12.5h-384 q-18 0 -30.5 12.5t-12.5 30.5v298q0 18 12.5 30.5t30.5 12.5h384zM427 42v300h-384v-300h384z" />
<glyph unicode="&#xf218;" d="M213.5 405q88.5 0 151 -62.5t62.5 -150.5t-62.5 -150.5t-151 -62.5t-151 62.5t-62.5 150.5t62.5 150.5t151 62.5zM309 107q22 0 38 15.5t16 37.5t-16 37.5t-38 15.5h-10q0 36 -25 61t-61 25q-29 0 -52 -18.5t-30 -46.5l-3 1q-27 0 -45.5 -19t-18.5 -45.5t18.5 -45 t45.5 -18.5h181z" />
<glyph unicode="&#xf219;" horiz-adv-x="512" d="M413 234q42 -3 70.5 -33.5t28.5 -72.5q0 -44 -31.5 -75.5t-75.5 -31.5h-277q-53 0 -90.5 37.5t-37.5 90.5q0 50 33 86t81 41q20 40 58 63.5t84 23.5q58 0 102 -37t55 -92zM213 85l141 141l-30 30l-111 -110l-44 44l-30 -30z" />
<glyph unicode="&#xf21a;" horiz-adv-x="512" d="M413 234q42 -3 70.5 -33.5t28.5 -72.5q0 -44 -31.5 -75.5t-75.5 -31.5h-277q-53 0 -90.5 37.5t-37.5 90.5q0 50 33 86t81 41q20 40 58 63.5t84 23.5q58 0 102 -37t55 -92zM363 171h-64v85h-86v-85h-64l107 -107z" />
<glyph unicode="&#xf21b;" horiz-adv-x="512" d="M413 234q42 -3 70.5 -33.5t28.5 -72.5q0 -55 -45 -87l-31 31q33 19 33 56q0 27 -18.5 45.5t-45.5 18.5h-32v11q0 48 -34 82.5t-83 34.5q-29 0 -54 -13l-32 31q40 25 86 25q58 0 102 -37t55 -92zM64 336l27 27l357 -357l-27 -27l-43 42h-250q-53 0 -90.5 37.5t-37.5 90.5 q0 52 35.5 89t87.5 39zM165 235h-37q-35 0 -60 -25t-25 -60.5t25 -60.5t60 -25h208z" />
<glyph unicode="&#xf21c;" horiz-adv-x="512" d="M413 234q42 -3 70.5 -33.5t28.5 -72.5q0 -44 -31.5 -75.5t-75.5 -31.5h-277q-53 0 -90.5 37.5t-37.5 90.5q0 50 33 86t81 41q21 40 59 63.5t83 23.5q58 0 102 -37t55 -92zM405 64q27 0 45.5 19t18.5 45t-18.5 45t-45.5 19h-32v11q0 48 -34.5 82.5t-82.5 34.5 q-58 0 -94 -47q41 -12 67.5 -46t26.5 -78h-43q0 36 -25 61t-60 25t-60 -25t-25 -60.5t25 -60.5t60 -25h277z" />
<glyph unicode="&#xf21d;" horiz-adv-x="512" d="M413 234q42 -3 70.5 -33.5t28.5 -72.5q0 -44 -31.5 -75.5t-75.5 -31.5h-277q-53 0 -90.5 37.5t-37.5 90.5q0 50 33 86t81 41q20 40 58 63.5t84 23.5q58 0 102 -37t55 -92zM405 64q27 0 45.5 18.5t18.5 45.5t-18.5 45.5t-45.5 18.5h-32v11q0 48 -34 82.5t-83 34.5 q-40 0 -71 -24t-42 -61h-15q-35 0 -60 -25t-25 -60.5t25 -60.5t60 -25h277z" />
<glyph unicode="&#xf21e;" horiz-adv-x="512" d="M413 234q42 -3 70.5 -33.5t28.5 -72.5q0 -44 -31.5 -75.5t-75.5 -31.5h-277q-53 0 -90.5 37.5t-37.5 90.5q0 50 33 86t81 41q20 40 58 63.5t84 23.5q58 0 102 -37t55 -92zM299 171h64l-107 106l-107 -106h64v-86h86v86z" />
<glyph unicode="&#xf21f;" horiz-adv-x="512" d="M413 234q42 -3 70.5 -33.5t28.5 -72.5q0 -44 -31.5 -75.5t-75.5 -31.5h-277q-53 0 -90.5 37.5t-37.5 90.5q0 50 33 86t81 41q20 40 58 63.5t84 23.5q58 0 102 -37t55 -92z" />
<glyph unicode="&#xf220;" horiz-adv-x="299" d="M299 256l-150 -149l-149 149h85v128h128v-128h86zM0 64h299v-43h-299v43z" />
<glyph unicode="&#xf221;" horiz-adv-x="341" d="M213 405l128 -128v-256q0 -17 -12.5 -29.5t-29.5 -12.5h-257q-17 0 -29.5 12.5t-12.5 29.5v342q0 17 12.5 29.5t30.5 12.5h170zM256 107v42h-64v64h-43v-64h-64v-42h64v-64h43v64h64zM192 256h117l-117 117v-117z" />
<glyph unicode="&#xf222;" horiz-adv-x="341" d="M213 405l128 -128v-256q0 -17 -12.5 -29.5t-29.5 -12.5h-257q-17 0 -29.5 12.5t-12.5 29.5v342q0 17 12.5 29.5t30.5 12.5h170zM256 64v43h-171v-43h171zM256 149v43h-171v-43h171zM192 256h117l-117 117v-117z" />
<glyph unicode="&#xf223;" horiz-adv-x="341" d="M43 405h170l128 -128v-256q0 -17 -12.5 -29.5t-29.5 -12.5h-257q-17 0 -29.5 12.5t-12.5 29.5v342q0 17 12.5 29.5t30.5 12.5zM192 256h117l-117 117v-117z" />
<glyph unicode="&#xf224;" d="M384 320q18 0 30.5 -12.5t12.5 -30.5v-213q0 -18 -12.5 -30.5t-30.5 -12.5h-341q-18 0 -30.5 12.5t-12.5 30.5v256q0 18 12.5 30.5t30.5 12.5h128l42 -43h171zM384 64v213h-341v-213h341z" />
<glyph unicode="&#xf225;" d="M384 320q18 0 30.5 -12.5t12.5 -30.5v-213q0 -18 -12.5 -30.5t-30.5 -12.5h-341q-18 0 -30.5 12.5t-12.5 30.5v256q0 18 12.5 30.5t30.5 12.5h128l42 -43h171zM277.5 256q-17.5 0 -30 -12.5t-12.5 -30t12.5 -30t30 -12.5t30 12.5t12.5 30t-12.5 30t-30 12.5zM363 85v22 q0 19 -29.5 30.5t-56 11.5t-56 -11.5t-29.5 -30.5v-22h171z" />
<glyph unicode="&#xf226;" d="M384 320q18 0 30.5 -12.5t12.5 -30.5v-213q0 -18 -12.5 -30.5t-30.5 -12.5h-341q-18 0 -30.5 12.5t-12.5 30.5v256q0 18 12.5 30.5t30.5 12.5h128l42 -43h171zM247 64l-20 87l67 58l-89 8l-34 82l-35 -82l-89 -8l68 -58l-21 -87l77 45z" />
<glyph unicode="&#xf227;" d="M43 363h128l42 -43h171q18 0 30.5 -12.5t12.5 -30.5v-213q0 -18 -12.5 -30.5t-30.5 -12.5h-341q-18 0 -30.5 12.5t-12.5 30.5v256q0 18 12.5 30.5t30.5 12.5zM276 256l-25 -60l-65 -5l49 -43l-15 -63l56 33l56 -33l-14 63l49 43l-65 5z" />
<glyph unicode="&#xf228;" d="M171 363l42 -43h171q18 0 30.5 -12.5t12.5 -30.5v-213q0 -18 -12.5 -30.5t-30.5 -12.5h-341q-18 0 -30.5 12.5t-12.5 30.5v256q0 18 12.5 30.5t30.5 12.5h128z" />
<glyph unicode="&#xf229;" horiz-adv-x="299" d="M139 256h32v-128h-32v128zM85 256q10 0 16 -6.5t6 -14.5v-11h-75v-64h43v32h32v-43q0 -8 -6 -14.5t-16 -6.5h-64q-9 0 -15 6.5t-6 14.5v86q0 8 6 14.5t15 6.5h64zM299 224h-64v-21h42v-32h-42v-43h-32v128h96v-32z" />
<glyph unicode="&#xf22a;" horiz-adv-x="299" d="M0 363h299v-43h-299v43zM0 149l149 150l150 -150h-86v-128h-128v128h-85z" />
<glyph unicode="&#xf22b;" horiz-adv-x="384" d="M0 384h384v-384h-384v384zM171 43v128h-128v-128h128zM171 213v128h-128v-128h128zM341 43v128h-128v-128h128zM341 213v128h-128v-128h128z" />
<glyph unicode="&#xf22c;" horiz-adv-x="384" d="M128 213v-42h-43v42h43zM213 128v-43h-42v43h42zM128 384v-43h-43v43h43zM213 213v-42h-42v42h42zM43 384v-43h-43v43h43zM213 299v-43h-42v43h42zM299 213v-42h-43v42h43zM213 384v-43h-42v43h42zM299 384v-43h-43v43h43zM341 171v42h43v-42h-43zM341 85v43h43v-43h-43z M43 299v-43h-43v43h43zM341 384h43v-43h-43v43zM341 256v43h43v-43h-43zM43 213v-42h-43v42h43zM0 0v43h384v-43h-384zM43 128v-43h-43v43h43z" />
<glyph unicode="&#xf22d;" horiz-adv-x="384" d="M85 341v43h43v-43h-43zM85 171v42h43v-42h-43zM85 0v43h43v-43h-43zM171 85v43h42v-43h-42zM171 0v43h42v-43h-42zM0 0v43h43v-43h-43zM0 85v43h43v-43h-43zM0 171v42h43v-42h-43zM0 256v43h43v-43h-43zM0 341v43h43v-43h-43zM171 171v42h42v-42h-42zM341 85v43h43v-43 h-43zM341 171v42h43v-42h-43zM341 0v43h43v-43h-43zM341 256v43h43v-43h-43zM171 256v43h42v-43h-42zM341 384h43v-43h-43v43zM171 341v43h42v-43h-42zM256 0v43h43v-43h-43zM256 171v42h43v-42h-43zM256 341v43h43v-43h-43z" />
<glyph unicode="&#xf22e;" horiz-adv-x="512" d="M379 299l-214 -214h-80v80l214 214zM442 362l-42 -42l-80 80l42 42q6 6 15 6t15 -6l50 -50q6 -6 6 -15t-6 -15zM0 21h512v-85h-512v85z" />
<glyph unicode="&#xf22f;" horiz-adv-x="384" d="M0 0v43h43v-43h-43zM43 299v-43h-43v43h43zM0 85v43h43v-43h-43zM85 0v43h43v-43h-43zM43 384v-43h-43v43h43zM128 384v-43h-43v43h43zM299 384v-43h-43v43h43zM213 299v-43h-42v43h42zM213 384v-43h-42v43h42zM341 85v43h43v-43h-43zM171 0v43h42v-43h-42zM0 171v42h384 v-42h-384zM341 384h43v-43h-43v43zM341 256v43h43v-43h-43zM171 85v43h42v-43h-42zM256 0v43h43v-43h-43zM341 0v43h43v-43h-43z" />
<glyph unicode="&#xf230;" horiz-adv-x="384" d="M0 0v43h43v-43h-43zM85 0v43h43v-43h-43zM43 299v-43h-43v43h43zM0 85v43h43v-43h-43zM128 384v-43h-43v43h43zM43 384v-43h-43v43h43zM299 384v-43h-43v43h43zM341 256v43h43v-43h-43zM341 384h43v-43h-43v43zM256 0v43h43v-43h-43zM213 384v-171h171v-42h-171v-171h-42 v171h-171v42h171v171h42zM341 0v43h43v-43h-43zM341 85v43h43v-43h-43z" />
<glyph unicode="&#xf231;" horiz-adv-x="384" d="M171 0v43h42v-43h-42zM171 85v43h42v-43h-42zM171 341v43h42v-43h-42zM171 256v43h42v-43h-42zM171 171v42h42v-42h-42zM85 0v43h43v-43h-43zM85 341v43h43v-43h-43zM85 171v42h43v-42h-43zM0 0v384h43v-384h-43zM341 256v43h43v-43h-43zM256 0v43h43v-43h-43zM341 85v43 h43v-43h-43zM341 384h43v-43h-43v43zM341 171v42h43v-42h-43zM341 0v43h43v-43h-43zM256 171v42h43v-42h-43zM256 341v43h43v-43h-43z" />
<glyph unicode="&#xf232;" horiz-adv-x="384" d="M213 299v-43h-42v43h42zM213 213v-42h-42v42h42zM299 213v-42h-43v42h43zM0 384h384v-384h-384v384zM341 43v298h-298v-298h298zM213 128v-43h-42v43h42zM128 213v-42h-43v42h43z" />
<glyph unicode="&#xf233;" horiz-adv-x="384" d="M85 0v43h43v-43h-43zM0 341v43h43v-43h-43zM85 341v43h43v-43h-43zM85 171v42h43v-42h-43zM0 0v43h43v-43h-43zM171 0v43h42v-43h-42zM0 171v42h43v-42h-43zM0 85v43h43v-43h-43zM0 256v43h43v-43h-43zM171 85v43h42v-43h-42zM256 171v42h43v-42h-43zM341 384h43v-384 h-43v384zM256 0v43h43v-43h-43zM256 341v43h43v-43h-43zM171 171v42h42v-42h-42zM171 341v43h42v-43h-42zM171 256v43h42v-43h-42z" />
<glyph unicode="&#xf234;" horiz-adv-x="384" d="M256 0v43h43v-43h-43zM341 0v43h43v-43h-43zM85 0v43h43v-43h-43zM171 0v43h42v-43h-42zM341 85v43h43v-43h-43zM341 171v42h43v-42h-43zM0 384h384v-43h-341v-341h-43v384zM341 256v43h43v-43h-43z" />
<glyph unicode="&#xf235;" horiz-adv-x="384" d="M85 0v43h43v-43h-43zM85 171v42h43v-42h-43zM171 171v42h42v-42h-42zM171 0v43h42v-43h-42zM0 85v43h43v-43h-43zM0 0v43h43v-43h-43zM0 171v42h43v-42h-43zM0 256v43h43v-43h-43zM171 85v43h42v-43h-42zM341 256v43h43v-43h-43zM341 171v42h43v-42h-43zM0 384h384v-43 h-384v43zM341 85v43h43v-43h-43zM256 0v43h43v-43h-43zM171 256v43h42v-43h-42zM341 0v43h43v-43h-43zM256 171v42h43v-42h-43z" />
<glyph unicode="&#xf236;" horiz-adv-x="384" d="M0 256v43h43v-43h-43zM0 341v43h43v-43h-43zM85 0v43h43v-43h-43zM85 171v42h43v-42h-43zM0 171v42h43v-42h-43zM0 0v43h43v-43h-43zM0 85v43h43v-43h-43zM85 341v43h43v-43h-43zM341 85v43h43v-43h-43zM171 0v384h42v-384h-42zM341 0v43h43v-43h-43zM341 171v42h43v-42 h-43zM341 384h43v-43h-43v43zM341 256v43h43v-43h-43zM256 341v43h43v-43h-43zM256 0v43h43v-43h-43zM256 171v42h43v-42h-43z" />
<glyph unicode="&#xf237;" horiz-adv-x="405" d="M299 427v-43h-256v-299h-43v299q0 18 12.5 30.5t30.5 12.5h256zM363 341q17 0 29.5 -12.5t12.5 -29.5v-299q0 -18 -12.5 -30.5t-29.5 -12.5h-235q-18 0 -30.5 12.5t-12.5 30.5v299q0 17 12.5 29.5t30.5 12.5h235zM363 0v299h-235v-299h235z" />
<glyph unicode="&#xf238;" horiz-adv-x="469" d="M341 128v171h-170v42h170q18 0 30.5 -12.5t12.5 -29.5v-171h-43zM128 85h341v-42h-85v-86h-43v86h-213q-18 0 -30.5 12.5t-12.5 29.5v214h-85v42h85v86h43v-342z" />
<glyph unicode="&#xf239;" horiz-adv-x="384" d="M85 128h214v-43h-214v43zM0 0v43h384v-43h-384zM0 171v42h384v-42h-384zM85 299h214v-43h-214v43zM0 384h384v-43h-384v43z" />
<glyph unicode="&#xf23a;" horiz-adv-x="384" d="M0 0v43h384v-43h-384zM0 85v43h384v-43h-384zM0 171v42h384v-42h-384zM0 256v43h384v-43h-384zM0 384h384v-43h-384v43z" />
<glyph unicode="&#xf23b;" horiz-adv-x="384" d="M256 128v-43h-256v43h256zM256 299v-43h-256v43h256zM0 171v42h384v-42h-384zM0 0v43h384v-43h-384zM0 384h384v-43h-384v43z" />
<glyph unicode="&#xf23c;" horiz-adv-x="384" d="M0 0v43h384v-43h-384zM128 85v43h256v-43h-256zM0 171v42h384v-42h-384zM128 256v43h256v-43h-256zM0 384h384v-43h-384v43z" />
<glyph unicode="&#xf23d;" horiz-adv-x="229" d="M183 218q21 -10 33.5 -29.5t12.5 -43.5q0 -34 -23 -57.5t-56 -23.5h-150v299h133q36 0 61 -25t25 -61q0 -35 -36 -59zM64 309v-64h64q13 0 22.5 9.5t9.5 23t-9.5 22.5t-22.5 9h-64zM139 117q13 0 22.5 9.5t9.5 23t-9.5 22.5t-22.5 9h-75v-64h75z" />
<glyph unicode="&#xf23e;" horiz-adv-x="384" d="M43 171v42h298v-42h-298zM0 85v43h299v-43h-299zM85 299h299v-43h-299v43z" />
<glyph unicode="&#xf23f;" horiz-adv-x="384" d="M27 341l6 -5l308 -309l-27 -27l-121 121l-33 -78h-64l53 123l-149 148zM85 341h299v-64h-124l-34 -80l-45 44l16 36h-52l-60 60v4z" />
<glyph unicode="&#xf240;" horiz-adv-x="512" d="M353 257q10 -9 10 -22.5t-10 -22.5l-117 -117q-9 -10 -22.5 -10t-22.5 10l-118 117q-9 9 -9 22.5t9 22.5l110 110l-51 51l31 30zM111 235h205l-103 102zM405 203q43 -47 43 -75q0 -18 -12.5 -30.5t-30 -12.5t-30 12.5t-12.5 30.5q0 13 10.5 31.5t21.5 30.5zM0 21h512v-85 h-512v85z" />
<glyph unicode="&#xf241;" horiz-adv-x="338" d="M299 149q0 -14 -3 -28l-184 184q14 19 28.5 37.5t22.5 27.5l8 10q5 -6 13.5 -16.5t30.5 -40t39 -56.5t31 -60.5t14 -57.5zM280 83l58 -59l-27 -27l-56 56q-36 -32 -84 -32q-53 0 -90.5 37.5t-37.5 90.5q0 35 28 88l-71 71l27 28l154 -155z" />
<glyph unicode="&#xf242;" horiz-adv-x="512" d="M0 21h512v-85h-512v85zM235 384h42l117 -299h-48l-23 64h-134l-24 -64h-48zM205 192h102l-51 135z" />
<glyph unicode="&#xf243;" horiz-adv-x="384" d="M171 85v43h213v-43h-213zM0 192l85 85v-170zM0 0v43h384v-43h-384zM0 384h384v-43h-384v43zM171 256v43h213v-43h-213zM171 171v42h213v-42h-213z" />
<glyph unicode="&#xf244;" horiz-adv-x="384" d="M0 0v43h384v-43h-384zM0 277l85 -85l-85 -85v170zM171 85v43h213v-43h-213zM0 384h384v-43h-384v43zM171 256v43h213v-43h-213zM171 171v42h213v-42h-213z" />
<glyph unicode="&#xf245;" horiz-adv-x="256" d="M85 363h171v-64h-60l-72 -171h47v-64h-171v64h60l72 171h-47v64z" />
<glyph unicode="&#xf246;" horiz-adv-x="437" d="M96 299v-214h53l-74 -74l-75 74h53v214h-53l75 74l74 -74h-53zM181 341h256v-42h-256v42zM181 43v42h256v-42h-256zM181 171v42h256v-42h-256z" />
<glyph unicode="&#xf247;" horiz-adv-x="395" d="M32 224q13 0 22.5 -9.5t9.5 -22.5t-9.5 -22.5t-22.5 -9.5t-22.5 9.5t-9.5 22.5t9.5 22.5t22.5 9.5zM32 352q13 0 22.5 -9.5t9.5 -22.5t-9.5 -22.5t-22.5 -9.5t-22.5 9.5t-9.5 22.5t9.5 22.5t22.5 9.5zM32 92q12 0 20 -8t8 -20t-8 -20t-20 -8t-20 8t-8 20t8 20t20 8z M96 43v42h299v-42h-299zM96 171v42h299v-42h-299zM96 341h299v-42h-299v42z" />
<glyph unicode="&#xf248;" horiz-adv-x="405" d="M0 85v22h64v-86h-64v22h43v10h-22v22h22v10h-43zM21 277v64h-21v22h43v-86h-22zM0 213v22h64v-20l-38 -44h38v-22h-64v20l38 44h-38zM107 341h298v-42h-298v42zM107 43v42h298v-42h-298zM107 171v42h298v-42h-298z" />
<glyph unicode="&#xf249;" horiz-adv-x="341" d="M85 235q-35 0 -60 25t-25 60t25 60t60 25h171v-42h-43v-235h-42v235h-43v-235h-43v107zM341 64l-85 -85v64h-256v42h256v64z" />
<glyph unicode="&#xf24a;" horiz-adv-x="341" d="M128 235q-35 0 -60 25t-25 60t25 60t60 25h171v-42h-43v-235h-43v235h-42v-235h-43v107zM85 85h256v-42h-256v-64l-85 85l85 85v-64z" />
<glyph unicode="&#xf24b;" horiz-adv-x="405" d="M128 363h277v-64h-106v-256h-64v256h-107v64zM0 192v64h192v-64h-64v-149h-64v149h-64z" />
</font>
</defs>
</svg>
